Loading...
Error

Однажды в Ростове / Серии: 1-24 из 24 (Константин Худяков) [2012, Криминал, SATRip]

Статистика раздачи
Размер:  11,95 GB   |    Зарегистрирован:  4 года 2 месяца   |    Скачан:  7 раз

Полного источника не было: 8 месяцев

Сидов:  0  |  0 KB/s  ]   Личеров:  0  |  0 KB/s  ]

* - сиды/пиры с внешних источников

   
 
Автор Сообщение

nemos Пол:Муж

10-Сен-2012 08:42

Однажды в Ростове


Год выпуска: 2012
Жанр: драма, криминал
Страна: Россия
Режиссер: Константин Худяков
В ролях: Владимир Вдовиченков, Сергей Жигунов, Алёна Бабенко, Виктор Раков, Юрий Беляев, Кирилл Плетнёв, Константин Лавроненко, Андрей Ильин, Екатерина Климова, Богдан Ступка
Сюжет фильма:
Это история о легендарной банде "фантомасов" Толстопятовых, державших в 60-е в страхе весь город, о расстреле голодного бунта в Новочеркасске и его последствиях для страны. Фильм основан на реальных событиях. В основу сериала положена история братьев Толстопятовых. Один из братьев - Вячеслав - гений, прекрасный художник и конструктор. Однажды он оказался в эпицентре страшных событий – он становится свидетелем расстрела мирной демонстрации в городе Новочеркасске в 1962 году. После чего его таланты и положительные качества с неистовой яростью и гипертрофированностью переворачивается в "минус" - он становится бандитом. Вместе с другом, братом и его женой организовывает банду и начинает грабить государственные учреждения...В битву между органами госбезопасности и бандитской группировкой будут втянуты врачи и крупные политические фигуры. Главными действующими лицами в сериале также выступят профессора, писатели, уголовники, диссиденты...


Качество видео: SatRip

Продолжительность: 00:43:21серия
Формат: AVI
Видео: XviD, 704x384, 1493 kbps
Аудио: русский, MP3 2.0, 128 kbps

Код:

E:\СКАЧКИ\С underverse\Odnazhdy.v.Rostove.2012.SATRip.GettyGroup\Odnazhdy.v.Rostove.(24.serija.iz.24).2012.XviD.SATRip.GettyGroup.avi
   General
      Complete name : E:\СКАЧКИ\С underverse\Odnazhdy.v.Rostove.2012.SATRip.GettyGroup\Odnazhdy.v.Rostove.(24.serija.iz.24).2012.XviD.SATRip.GettyGroup.avi
      Format : AVI
      Format/Info : Audio Video Interleave
      File size : 506 MiB
      Duration : 43mn 21s
      Overall bit rate : 1 630 Kbps
      Writing application : VirtualDubMod 1.5.10.3 (build 2550/release)
      Writing library : VirtualDubMod build 2550/release
   Video #0
      ID : 0
      Format : MPEG-4 Visual
      Format profile : Advanced Simple@L5
      Format settings, BVOP : Yes
      Format settings, QPel : No
      Format settings, GMC : No warppoints
      Format settings, Matrix : Default (MPEG)
      Muxing mode : Packed bitstream
      Codec ID : XVID
      Codec ID/Hint : XviD
      Duration : 43mn 21s
      Bit rate : 1 493 Kbps
      Width : 704 pixels
      Height : 384 pixels
      Display aspect ratio : 16:9
      Frame rate : 25.000 fps
      Color space : YUV
      Chroma subsampling : 4:2:0
      Bit depth : 8 bits
      Scan type : Progressive
      Bits/(Pixel*Frame) : 0.221
      Stream size : 463 MiB (92%)
      Writing library : XviD 63
   Audio #1
      ID : 1
      Format : MPEG Audio
      Format version : Version 1
      Format profile : Layer 3
      Mode : Joint stereo
      Mode extension : MS Stereo
      Codec ID : 55
      Codec ID/Hint : MP3
      Duration : 43mn 20s
      Bit rate mode : Constant
      Bit rate : 128 Kbps
      Channel(s) : 2 channels
      Sampling rate : 48.0 KHz
      Stream size : 39.7 MiB (8%)
      Alignment : Split accross interleaves
      Interleave, duration : 40 ms (1.00 video frame)
      Interleave, preload duration : 500 ms
Семпл: http://multi-up.com/758698

picpicpicpicpicpicpicpicpicpicpicpicpicpic
Для увеличения картинки щелкните мышкой по превью

Этот торрент недоступен для скачивания без регистрации, однако доступен по публичной magnet-ссылке (источники с публичных трекеров). Перед использованием ссылки прочтите, пожалуйста Пользовательское соглашение, а также как можно дольше оставайтесь на раздаче! Для того, чтобы скачать сам торрент-файл (который видит больше источников), а также для того, чтобы поблагодарить релизера, вам необходимо зарегистрироваться. Если регистрироваться лень - вы можете также попробовать скачать релиз по нашим партнерским ссылкам ниже.

[underverse.su].t19760.torrent
Трекер: Зарегистрирован   [ 10.09.2012 08:42 ]  

Статус: проверено (by garry at 10.09.2012 09:56)
Поблагодарили: 1 человек
Тип торрента: публичный - доступные источники с открытых трекеров: 
Размер: 11,95 GB (занимает 2,73 DVDR, для записи нужно 3 болванки DVDR/RW)
 
 
Похожие темы
Форум Тема Автор Торрент Отв. Посл. сооб.
Зарубежное кино [DVDRip, Low-Res HDRip, и т.д.] Однажды в Анатолии / Bir zamanlar Anadolu`da (Нури Бильге Джейлан) [2011 г., драма, криминал, HDRip] 90ytr90
2 | 0

0 | 1488

4

05.04.2012 10:37

Зарубежное кино [DVDRip, Low-Res HDRip, и т.д.] Однажды в Марселе / MR 73 (Оливье Маршаль / Olivier Marchal) [2008 г., триллер, драма, криминал, BDRip] MVO + Original + AVO (А. Гаврилов) + Subs 90ytr90
0 | 0

0 | 1751

8

17.11.2013 12:40

Зарубежное кино [DVDRip, Low-Res HDRip, и т.д.] Однажды в Голливуде / What Just Happened (Барри Левинсон / Barry Levinson) [2008 г., драма, комедия, BDRip] Dub garry
15 | 0

0 | 1347

10

03.02.2014 17:58

Зарубежное кино [DVDRip, Low-Res HDRip, и т.д.] Однажды в Шанхае / Once Upon a Time in Shanghai (Чинг-По Вонг / Ching-Po Wong) [2014 г., криминал, боевые искуства, WEB-DLRip] DVO (Ворон и Sandairina) + Original (Chi) + Sub (Rus) + hardsub 90ytr90
1 | 2

0 | 2958

45

13.05.2014 18:44

Зарубежное кино [DVDRip, Low-Res HDRip, и т.д.] Однажды в Шанхае / Once Upon a Time in Shanghai (Чхин Пхо Вон / Ching-Po Wong) [2014 г., криминал, боевые искуства, HDRip] DVO Паукан
5 | 0

0 | 1016

7

11.07.2014 10:45

Зарубежное кино [DVDRip, Low-Res HDRip, и т.д.] Однажды в Риме / When in Rome (Марк Стивен Джонсон) [2009 г., Мелодрама, Комедия, BDRip-AVC] Dub (RUS, Невафильм, BD EUR) + Original (ENG) + Subs (RUS, ENG) Ведьмочка
6 | 0

0 | 549

8

23.08.2014 21:11

Зарубежное кино [DVDRip, Low-Res HDRip, и т.д.] Однажды в Нью-Йорке / Song one (Кейт Баркер / Kate Barker-Froyland) [2014 г., драма, музыкальный, WEB-DLRip] VO (PashaUp) 90ytr90
2 | 0

0 | 444

5

26.01.2015 19:59

Зарубежное кино [DVDRip, Low-Res HDRip, и т.д.] Однажды в Марселе / MR 73 (Оливье Маршаль / Olivier Marchal) [2008 г., триллер, драма, криминал, HDRip] MVO 90ytr90
13 | 0

0 | 510

14

01.03.2015 18:45

Классика зарубежного кино Однажды в Америке / Once Upon a Time in America (Серджио Леоне / Sergio Leone) [1984 г., драма, криминал, HDRip] DVO + VO 90ytr90
38 | 1

0 | 2294

24

15.12.2013 13:59

Классика зарубежного кино Однажды в Америке / Once Upon a Time in America (Серджио Леоне / Sergio Leone) [1984 г., драма, криминал, BDRip] [Extended cut] 2xAVO + VO + Original garry
29 | 4

0 | 1108

14

21.01.2014 19:52


Яндекс.Метрика powered by Sphinx


В Н И М А Н И Е
Сайт не распространяет и не хранит электронные версии произведений, а лишь бесплатно и без коммерческой выгоды (не требуя взамен платы,
SMS и т.д.) предоставляет доступ к создаваемому пользователями каталогу ссылок на торрент-файлы, которые содержат только списки хеш-сумм.
Убедительная просьба с жалобами обращаться напрямую к пользователю, разместившему торрент файл.

Вверх