Loading...
Error

Самара / Серии: 1-14 из 14 (Станислав Дремов) [2012г, мелодрама, SATRip]

Статистика раздачи
Размер:  7 GB   |    Зарегистрирован:  4 года 2 месяца   |    Скачан:  0 раз

Полного источника не было: 2 года

Сидов:  0  |  0 KB/s  ]   Личеров:  0  |  0 KB/s  ]

* - сиды/пиры с внешних источников

   
 
Автор Сообщение

nemos Пол:Муж

10-Сен-2012 04:49

Самара


Год выпуска: 2012
Жанр: драма, мелодрама
Страна: Россия
Режиссер: Станислав Дремов
В ролях: Артур Смольянинов, Леонид Громов, Полина Филоненко, Евгения Добровольская, Владимир Симонов, Юрий Батурин, Александра Морозова, Николай Соловьев, Луиза-Габриэла Бровина, Ольга Арнтгольц
Сюжет фильма:
Главный герой сериала — врач «Скорой помощи» Олег Самарин. Друзья и коллеги зовут его Самара. Бунтарь и выскочка, он спорит с начальством, отпускает шуточки в адрес коллег и пациентов, нарушает все правила и уставы! Но Самаре все сходит с рук. Он — хирург от Бога! Каждый день Самара со своей бригадой (фельдшером Леной и водителем Михалычем) помогает людям. Пациенты Олега — это пестрая галерея характеров и судеб и порой Самаре приходится лечить не только их тела, но и души. Но и самому Самаре есть что скрывать… У Самары есть тайна, раскрытие которой грозит ему потерей любимой работы. Но, как говорится, все тайное когда-нибудь становится явным…


Качество видео: SatRip

Продолжительность: 0:43:25 серия
Формат: AVI
Видео: XviD, 704x400, 1 511 kbps
Аудио: русский, MP3 2.0, 128 kbps

Код:

E:\СКАЧКИ\С underverse\Самара\Самара.14.avi
   General
      Complete name : E:\СКАЧКИ\С underverse\Самара\Самара.14.avi
      Format : AVI
      Format/Info : Audio Video Interleave
      File size : 512 MiB
      Duration : 43mn 25s
      Overall bit rate : 1 648 Kbps
      Writing application : VirtualDubMod 1.5.10.3 | www.virtualdub-fr.org || (build 2550/release)
      Writing library : VirtualDubMod build 2550/release
   Video #0
      ID : 0
      Format : MPEG-4 Visual
      Format profile : Advanced Simple@L5
      Format settings, BVOP : Yes
      Format settings, QPel : No
      Format settings, GMC : No warppoints
      Format settings, Matrix : Default (MPEG)
      Codec ID : XVID
      Codec ID/Hint : XviD
      Duration : 43mn 25s
      Bit rate : 1 511 Kbps
      Width : 704 pixels
      Height : 400 pixels
      Display aspect ratio : 16:9
      Frame rate : 25.000 fps
      Color space : YUV
      Chroma subsampling : 4:2:0
      Bit depth : 8 bits
      Scan type : Progressive
      Bits/(Pixel*Frame) : 0.215
      Stream size : 469 MiB (92%)
      Writing library : XviD 65
   Audio #1
      ID : 1
      Format : MPEG Audio
      Format version : Version 1
      Format profile : Layer 3
      Codec ID : 55
      Codec ID/Hint : MP3
      Duration : 43mn 25s
      Bit rate mode : Constant
      Bit rate : 128 Kbps
      Channel(s) : 2 channels
      Sampling rate : 48.0 KHz
      Stream size : 39.8 MiB (8%)
      Alignment : Aligned on interleaves
      Interleave, duration : 40 ms (1.00 video frame)
      Interleave, preload duration : 504 ms
      Writing library : LAME3.98r
      Encoding settings : -m s -V 4 -q 2 -lowpass 17 -b 128
Семпл: http://multi-up.com/758649

picpicpicpicpicpicpicpic
Для увеличения картинки щелкните мышкой по превью

Этот торрент недоступен для скачивания без регистрации, однако доступен по публичной magnet-ссылке (источники с публичных трекеров). Перед использованием ссылки прочтите, пожалуйста Пользовательское соглашение, а также как можно дольше оставайтесь на раздаче! Для того, чтобы скачать сам торрент-файл (который видит больше источников), а также для того, чтобы поблагодарить релизера, вам необходимо зарегистрироваться. Если регистрироваться лень - вы можете также попробовать скачать релиз по нашим партнерским ссылкам ниже.

[underverse.su].t19758.torrent
Трекер: Зарегистрирован   [ 10.09.2012 04:49 ]  

Статус: проверено (by garry at 10.09.2012 08:22)
Поблагодарили: пока никто не поблагодарил...
Тип торрента: публичный - доступные источники с открытых трекеров: 
Размер: 7 GB (занимает 1,6 DVDR, для записи нужно 2 болванки DVDR/RW)
 
 

Яндекс.Метрика powered by Sphinx


В Н И М А Н И Е
Сайт не распространяет и не хранит электронные версии произведений, а лишь бесплатно и без коммерческой выгоды (не требуя взамен платы,
SMS и т.д.) предоставляет доступ к создаваемому пользователями каталогу ссылок на торрент-файлы, которые содержат только списки хеш-сумм.
Убедительная просьба с жалобами обращаться напрямую к пользователю, разместившему торрент файл.

Вверх