Loading...
Error

Управление гневом / Anger Management - Сезон: 1 / Серии: 1-10 (10) / (Роб Шиллер) [2012 г., Ситком, комедия, HDTVRip]

Статистика раздачи
Размер:  3,07 GB   |    Зарегистрирован:  4 года 2 месяца   |    Скачан:  12 раз

Полного источника не было: 1 год 7 месяцев

Сидов:  0  |  0 KB/s  ]   Личеров:  0  |  0 KB/s  ]

* - сиды/пиры с внешних источников

   
 
Автор Сообщение

Jimmy Пол:Муж

10-Сен-2012 04:44

Управление гневом / Anger Management
Год выпуска: 2012
Жанр: Ситком, комедия
Страна: США
Режиссер: Роб Шиллер
В ролях: Чарли Шин, Майкл Арден, Сэльма Блэр, Даниела Бобадилла, Бэрри Корбин, Норин ДеВулф, Стивен Тейлор, Бретт Батлер, Альдо Гонзалез, Дерек Ричардсон и др.
Сюжет фильма:
До своей карьеры терапевта Чарли был в тупике из-за отсутствия перспектив в низшей бейсбольной лиге. Проблема неумения контролировать свой гнев сбила его с пути в высшую лигу. После прохождения курса терапии по борьбе с гневом, он вывел свою команду в высшую лигу и провел один потрясающий сезон, прежде чем старые проблемы вновь не напомнили о себе. В своем финальном матче он пытался ударить себя битой по ноге, в результате чего получил травму, которая положила конец его карьере.
Но в итоге эта же травма привела его к нынешней профессии. В то время как Чарли борется со своим гневом, в его жизни процветает хаос. Всё осложняется его отношениями с собственным терапевтом и лучшим другом, бывшей женой, чьи позитивные взгляды на будущее, но при этом плохой выбор мужчин, расстраивают Чарли и их 13-летнюю дочь, имеющую психические расстройства.

Качество видео: HDTVRip
Продолжительность: 00:21:38
Формат: avi
Видео: XviD, 720x400, 1914 kbps
Аудио: русский, многоголосый закадровый (Lostfilm), MP3 2.0, 128 kbps

Код:

General
Complete name                    : F:\Видео\Сериалы\Anger Managment S01 (LostFilm)\Anger.Management.S01E01.rus.LostFilm.TV.avi
Format                           : AVI
Format/Info                      : Audio Video Interleave
File size                        : 318 MiB
Duration                         : 21mn 38s
Overall bit rate                 : 2 056 Kbps
Writing application              : Nandub v1.0rc2
Writing library                  : Nandub build 1853/release

Video
ID                               : 0
Format                           : MPEG-4 Visual
Format profile                   : Simple@L3
Format settings, BVOP            : No
Format settings, QPel            : No
Format settings, GMC             : No warppoints
Format settings, Matrix          : Default (H.263)
Codec ID                         : XVID
Codec ID/Hint                    : XviD
Duration                         : 21mn 38s
Bit rate                         : 1 915 Kbps
Width                            : 720 pixels
Height                           : 400 pixels
Display aspect ratio             : 16/9
Frame rate                       : 23.976 fps
Resolution                       : 24 bits
Colorimetry                      : 4:2:0
Scan type                        : Progressive
Bits/(Pixel*Frame)               : 0.277
Stream size                      : 296 MiB (93%)
Writing library                  : XviD 1.2.1 (UTC 2008-12-04)

Audio
ID                               : 1
Format                           : MPEG Audio
Format version                   : Version 1
Format profile                   : Layer 3
Codec ID                         : 55
Codec ID/Hint                    : MP3
Duration                         : 21mn 38s
Bit rate mode                    : Constant
Bit rate                         : 128 Kbps
Channel(s)                       : 2 channels
Sampling rate                    : 48.0 KHz
Resolution                       : 16 bits
Stream size                      : 19.8 MiB (6%)
Alignment                        : Aligned on interleaves
Interleave, duration             : 24 ms (0.58 video frame)
Interleave, preload duration     : 480 ms


Семпл: http://multi-up.com/727362
Релиз группы:
picpicpic
picpicpic
Для увеличения картинки щелкните мышкой по превью

Этот торрент недоступен для скачивания без регистрации, однако доступен по публичной magnet-ссылке (источники с публичных трекеров). Перед использованием ссылки прочтите, пожалуйста Пользовательское соглашение, а также как можно дольше оставайтесь на раздаче! Для того, чтобы скачать сам торрент-файл (который видит больше источников), а также для того, чтобы поблагодарить релизера, вам необходимо зарегистрироваться. Если регистрироваться лень - вы можете также попробовать скачать релиз по нашим партнерским ссылкам ниже.

[underverse.su].t19757.torrent
Трекер: Зарегистрирован   [ 10.09.2012 08:30 ]  

Статус: проверено (by garry at 10.09.2012 08:30)
Поблагодарили: 2 человека
Тип торрента: публичный - доступные источники с открытых трекеров: 
Размер: 3,07 GB (занимает 0,7 DVDR, для записи нужно 1 болванка DVDR/RW)
 
 
Похожие темы
Форум Тема Автор Торрент Отв. Посл. сооб.
Зарубежное кино [DVDRip, Low-Res HDRip, и т.д.] Управление страстью / Group Sex (Лоуренс Триллинг) [2010 г., комедия, DVDRip] DVO RG NewCinema
1 | 0

0 | 1082

34

13.03.2013 10:15

Зарубежные сериалы Управление гневом / Anger Management (Роб Шиллер) (Сезон 1, серии 1-7 из 10) [2012, Комедия, HDTVRip-AVC] Greshnik
0 | 0

1 | 1405

3

05.08.2012 07:44

Зарубежные сериалы Управление гневом / Anger Management / Сезон: 2 / Серии: 1-37 (45) (Боб Коэрр, Энди Кэдифф, Джерри Коэн) [2013 г., комедия, HDTVRip] MVO garry
33 | 5

1 | 3448

2

10.10.2013 09:36

Научно-популярные фильмы Управление миром (лекция для сотрудников ФСБ) [2009 г., документальный, CAMRip] Bratok
1 | 0

1 | 2724

137

30.08.2010 08:45

* Архив Управление гневом / Anger Management (Питер Сигал) [2003 г., комедия, мелодрама, BDRip] NMZ

4 | 1051

29.08.2010 23:52


Яндекс.Метрика powered by Sphinx


В Н И М А Н И Е
Сайт не распространяет и не хранит электронные версии произведений, а лишь бесплатно и без коммерческой выгоды (не требуя взамен платы,
SMS и т.д.) предоставляет доступ к создаваемому пользователями каталогу ссылок на торрент-файлы, которые содержат только списки хеш-сумм.
Убедительная просьба с жалобами обращаться напрямую к пользователю, разместившему торрент файл.

Вверх