Loading...
Error

Отрыв (Серии: 1-8) (Сергей Попов) [2011 г., Драма, DVDRip]

Статистика раздачи
Размер:  4,83 GB   |    Зарегистрирован:  4 года 2 месяца   |    Скачан:  2 раза

Полного источника не было: 2 года

Сидов:  0  |  0 KB/s  ]   Личеров:  0  |  0 KB/s  ]

* - сиды/пиры с внешних источников

   
 
Автор Сообщение

nemos Пол:Муж

10-Сен-2012 03:55

Отрыв (Сергей Попов)


Год выпуска: 2011
Жанр: драма
Страна: Россия
Режиссер: Сергей Попов
В ролях: Игорь Петренко, Андрей Смоляков, Кристина Кузьмина, Андрей Панин, Елена Лядова, Николай Добрынин, Владимир Колганов, Игорь Скляр, Дмитрий Поднозов, Андрей Зибров
Сюжет фильма:
В 1947 году Алексей Митрохин приезжает в послевоенную Москву навестить своего друга, бывшего комбата Аргунова, который во время войны спас его жизнь. Но оказывается, что комбат осужден на 25 лет и пребывает в лагере строго режима. Герой решается на отчаянный поступок — любой ценой вызволить друга…

Митрохин имитирует покушение на вождя народов товарища Сталина и получает приговор — четверть века в лагере самой высокой режимной категории — карельском «Лазо». В бараке он встречает, наконец, своего друга и произносит одну единственную фразу: «А я за тобой, комбат».

Бежать из «Лазо» еще никому не удавалось. С северной стороны лагеря — озеро, с юга — обнесенный колючей проволокой участок суши. С первого взгляда, затея совершить побег кажется безумной, но выясняется, что до войны Алексей учился в гидротехническом институте и проходил практику именно в том месте, где сейчас расположен концлагерь. В голове героя мгновенно вырабатывается совершенно невероятный план: использовать для побега плавающие торфяные острова…


Качество видео: DVDRip

Продолжительность: 00:48:07серия
Формат: AVI
Видео: XviD, 720 x 392, 1658 kbps
Аудио: русский, AC3 2.0, 128 kbps

Код:

E:\СКАЧКИ\С underverse\Otryv.2011.O.DVDRip.NNM-CLUB\Отрыв 8.avi
   General
      Complete name : E:\СКАЧКИ\С underverse\Otryv.2011.O.DVDRip.NNM-CLUB\Отрыв 8.avi
      Format : AVI
      Format/Info : Audio Video Interleave
      File size : 618 MiB
      Duration : 48mn 7s
      Overall bit rate : 1 796 Kbps
      Writing application : VirtualDubMod 1.5.10.3 | www.virtualdub-fr.org || (build 2550/release)
      Writing library : VirtualDubMod build 2550/release
   Video #0
      ID : 0
      Format : MPEG-4 Visual
      Format profile : Advanced Simple@L5
      Format settings, BVOP : Yes
      Format settings, QPel : No
      Format settings, GMC : No warppoints
      Format settings, Matrix : Default (H.263)
      Codec ID : XVID
      Codec ID/Hint : XviD
      Duration : 48mn 7s
      Bit rate : 1 658 Kbps
      Width : 720 pixels
      Height : 392 pixels
      Display aspect ratio : 16:9
      Frame rate : 25.000 fps
      Color space : YUV
      Chroma subsampling : 4:2:0
      Bit depth : 8 bits
      Scan type : Progressive
      Bits/(Pixel*Frame) : 0.235
      Stream size : 571 MiB (92%)
      Writing library : XviD 1.2.1 (UTC 2008-12-04)
   Audio #1
      ID : 1
      Format : AC-3
      Format/Info : Audio Coding 3
      Mode extension : CM (complete main)
      Codec ID : 2000
      Duration : 48mn 7s
      Bit rate mode : Constant
      Bit rate : 128 Kbps
      Channel(s) : 2 channels
      Channel positions : Front: L R
      Sampling rate : 48.0 KHz
      Stream size : 44.1 MiB (7%)
      Alignment : Split accross interleaves
      Interleave, duration : 40 ms (1.00 video frame)
      Interleave, preload duration : 500 ms
Семпл: http://multi-up.com/758639

picpicpicpicpicpicpicpicpicpicpicpicpicpic
Для увеличения картинки щелкните мышкой по превью

Этот торрент недоступен для скачивания без регистрации, однако доступен по публичной magnet-ссылке (источники с публичных трекеров). Перед использованием ссылки прочтите, пожалуйста Пользовательское соглашение, а также как можно дольше оставайтесь на раздаче! Для того, чтобы скачать сам торрент-файл (который видит больше источников), а также для того, чтобы поблагодарить релизера, вам необходимо зарегистрироваться. Если регистрироваться лень - вы можете также попробовать скачать релиз по нашим партнерским ссылкам ниже.

[underverse.su].t19754.torrent
Трекер: Зарегистрирован   [ 10.09.2012 03:55 ]  

Статус: проверено (by garry at 10.09.2012 08:18)
Поблагодарили: пока никто не поблагодарил...
Тип торрента: публичный - доступные источники с открытых трекеров: 
Размер: 4,83 GB (занимает 1,1 DVDR, для записи нужно 2 болванки DVDR/RW)
 
 

Яндекс.Метрика powered by Sphinx


В Н И М А Н И Е
Сайт не распространяет и не хранит электронные версии произведений, а лишь бесплатно и без коммерческой выгоды (не требуя взамен платы,
SMS и т.д.) предоставляет доступ к создаваемому пользователями каталогу ссылок на торрент-файлы, которые содержат только списки хеш-сумм.
Убедительная просьба с жалобами обращаться напрямую к пользователю, разместившему торрент файл.

Вверх