Loading...
Error

Наших бьют (Антон Борматов) [2010г, комедия, криминал, DVDRip]

Статистика раздачи
Размер:  1,46 GB   |    Зарегистрирован:  4 года 2 месяца   |    Скачан:  29 раз

Полного источника не было: 17 дней

Сидов:  0  |  0 KB/s  ]   Личеров:  0  |  0 KB/s  ]

* - сиды/пиры с внешних источников

   
 
Автор Сообщение

nemos Пол:Муж

10-Сен-2012 03:27

Наших бьют (Антон Борматов)


Год выпуска: 2010
Жанр: комедия, криминал
Страна: Россия
Режиссер: Антон Борматов
В ролях: Кирилл Полухин, Ян Цапник, Роман Ладнев, Егор Бакулин, Иван Васильев, Маргарита Бычкова, Константин Воробьёв, Андрей Пынзару, Екатерина Злая, Константин Лукашов
Сюжет фильма:
Главные герои — обычные 30-летние мужики, которые живут в обычной российской деревне, где всегда плохо с работой, где всегда нет денег, где гонят самогон, за который рассчитываются продуктами или дровами. Они не учились в институтах, не владеют иностранными языками, не разбираются в политике и считают слова «интернет» и «гламур» — ругательствами. За такие слова они и в морду могут дать. Жизнь они видят, в основном, по экрану телевизора. Да и то — черно-белого.

Еще один их товарищ сначала устроил в деревне массовый загул по случаю собственной свадьбы (женился на первой деревенской красавице), а потом укатил с молодой женой в свадебное путешествие в Санкт-Петербург на старой отцовской машине. И вот в Питере он случайно «помял» какому-то навороченному пацану новый джип. Владелец джипа и его друганы потребовали с него за моральный и прочий ущерб кругленькую сумму. Ему только и оставалось, что друзьям позвонить, благо один телефон в деревне есть. Ну а друзья — за друга всегда горой!

  • Российская премьера: 21 октября 2011

Качество видео: DVDRip

Продолжительность: 01:27:00
Формат: AVI
Видео: XviD, 704x384 , 1 917 kbps
Аудио: русский, AC3 2.0, 448 kbps

Код:

E:\СКАЧКИ\С underverse\nashih.bjut.2010.dvdrip.ac3.1450mb.by.riperrr.avi
   General
      Complete name : E:\СКАЧКИ\С underverse\nashih.bjut.2010.dvdrip.ac3.1450mb.by.riperrr.avi
      Format : AVI
      Format/Info : Audio Video Interleave
      File size : 1.46 GiB
      Duration : 1h 27mn
      Overall bit rate : 2 375 Kbps
      Movie name : nashih.bjut.2010.dvdrip.ac3.1450mb.by.riperrr
      Writing application : VirtualDubMod 1.5.10.3 | www.virtualdub-fr.org || (build 2550/release)
      Copyright : riperrr [RG All Films *другой трекер*]
   Video #0
      ID : 0
      Format : MPEG-4 Visual
      Format profile : Advanced Simple@L5
      Format settings, BVOP : Yes
      Format settings, QPel : No
      Format settings, GMC : No warppoints
      Format settings, Matrix : Custom
      Codec ID : XVID
      Codec ID/Hint : XviD
      Duration : 1h 27mn
      Bit rate : 1 917 Kbps
      Width : 704 pixels
      Height : 384 pixels
      Display aspect ratio : 16:9
      Frame rate : 25.000 fps
      Color space : YUV
      Chroma subsampling : 4:2:0
      Bit depth : 8 bits
      Scan type : Progressive
      Bits/(Pixel*Frame) : 0.284
      Stream size : 1.18 GiB (81%)
      Writing library : XviD 65
   Audio #1
      ID : 1
      Format : AC-3
      Format/Info : Audio Coding 3
      Mode extension : CM (complete main)
      Codec ID : 2000
      Duration : 1h 27mn
      Bit rate mode : Constant
      Bit rate : 448 Kbps
      Channel(s) : 6 channels
      Channel positions : Front: L C R, Side: L R, LFE
      Sampling rate : 48.0 KHz
      Stream size : 282 MiB (19%)
      Alignment : Split accross interleaves
      Interleave, duration : 40 ms (1.00 video frame)
      Interleave, preload duration : 500 ms
Семпл: http://multi-up.com/758632

picpicpicpicpicpicpicpicpicpic
Для увеличения картинки щелкните мышкой по превью

Этот торрент недоступен для скачивания без регистрации, однако доступен по публичной magnet-ссылке (источники с публичных трекеров). Перед использованием ссылки прочтите, пожалуйста Пользовательское соглашение, а также как можно дольше оставайтесь на раздаче! Для того, чтобы скачать сам торрент-файл (который видит больше источников), а также для того, чтобы поблагодарить релизера, вам необходимо зарегистрироваться. Если регистрироваться лень - вы можете также попробовать скачать релиз по нашим партнерским ссылкам ниже.

[underverse.su].t19751.torrent
Трекер: Зарегистрирован   [ 10.09.2012 03:27 ]  

Статус: проверено (by garry at 10.09.2012 08:17)
Поблагодарили: пока никто не поблагодарил...
Тип торрента: публичный - доступные источники с открытых трекеров: 
Размер: 1,46 GB (занимает 1/3 DVDR, для записи нужно 1 болванка DVDR/RW)
 
 

Яндекс.Метрика powered by Sphinx


В Н И М А Н И Е
Сайт не распространяет и не хранит электронные версии произведений, а лишь бесплатно и без коммерческой выгоды (не требуя взамен платы,
SMS и т.д.) предоставляет доступ к создаваемому пользователями каталогу ссылок на торрент-файлы, которые содержат только списки хеш-сумм.
Убедительная просьба с жалобами обращаться напрямую к пользователю, разместившему торрент файл.

Вверх