Loading...
Error

Братья (16 серий из 16) (Дмитрий Фикс) [2012 г., Боевик, Детектив, Криминал, SATRip]

Статистика раздачи
Размер:  8,36 GB   |    Зарегистрирован:  4 года 2 месяца   |    Скачан:  7 раз

Полного источника не было: 2 года

Сидов:  0  |  0 KB/s  ]   Личеров:  0  |  0 KB/s  ]

* - сиды/пиры с внешних источников

   
 
Автор Сообщение

nemos Пол:Муж

10-Сен-2012 02:41

Братья (16 серий из 16)


Год выпуска: 2012
Жанр: криминал
Страна: Россия
Режиссер: Дмитрий Фикс, Сергей Репецкий, Илья Максимов
В ролях: Сергей Жарков, Алексей Кравченко, Вадим Цаллати, Максим Глотов, Дмитрий Буренков, Александр Воробьев, Виктор Тереля, Сергей Терещенко, Юрий Чесноков, Дмитрий Каменщиков
Сюжет фильма:
Герои сериала – братья Старостины, сыновья застреленного в Ростове-на-Дону легендарного милиционера, полковника Старостина. Костя – опер убойного отдела в МУРе. Ашот – священник. Никита, связался с бандитами и управляет ночным клубом, принадлежащим вору в законе. Несмотря на разность характеров и непростые отношения, Костя, Никита и Ашот друг за друга – горой.Их связывает братская любовь и общее стремление узнать правду о гибели отца. Они принимают решение поехать в Ростов, чтобы найти убийцу. Костя выходит на ростовских коллег, а Никита – на местную братву. Братья проводят параллельное расследование и понимают, что отца кто-то подставил, и заказчиком убийства были вовсе не уголовные авторитеты, как сначала казалось…Братьям удается вычислить и обезвредить киллера, а потом и человека, который делал ему заказы. Но и он – всего лишь звено в длинной цепочке, концы которой ведут обратно в Москву…Удастся ли братьям найти виновника смерти своего отца, смогут ли они пройти проверку на прочность, как в отношениях между собой, так и в отношениях со своими любимыми?


Качество видео: SatRip

Продолжительность: 00:46:20 серия
Формат: AVI
Видео: XviD, 720x400, 1 501 kbps
Аудио: русский, MP3 2.0, 128 kbps

Код:

E:\СКАЧКИ\С underverse\Bratjya\Bratjya 16.avi
   General
      Complete name : E:\СКАЧКИ\С underverse\Bratjya\Bratjya 16.avi
      Format : AVI
      Format/Info : Audio Video Interleave
      File size : 543 MiB
      Duration : 46mn 20s
      Overall bit rate : 1 638 Kbps
      Writing library : VirtualDub build 32706/release
   Video #0
      ID : 0
      Format : MPEG-4 Visual
      Format profile : Advanced Simple@L5
      Format settings, BVOP : Yes
      Format settings, QPel : No
      Format settings, GMC : No warppoints
      Format settings, Matrix : Default (MPEG)
      Codec ID : XVID
      Codec ID/Hint : XviD
      Duration : 46mn 20s
      Bit rate : 1 501 Kbps
      Width : 720 pixels
      Height : 400 pixels
      Display aspect ratio : 16:9
      Frame rate : 25.000 fps
      Color space : YUV
      Chroma subsampling : 4:2:0
      Bit depth : 8 bits
      Scan type : Progressive
      Bits/(Pixel*Frame) : 0.208
      Stream size : 497 MiB (92%)
      Writing library : XviD 1.2.1 (UTC 2008-12-04)
   Audio #1
      ID : 1
      Format : MPEG Audio
      Format version : Version 1
      Format profile : Layer 3
      Mode : Joint stereo
      Mode extension : MS Stereo
      Codec ID : 55
      Codec ID/Hint : MP3
      Duration : 46mn 20s
      Bit rate mode : Constant
      Bit rate : 128 Kbps
      Channel(s) : 2 channels
      Sampling rate : 48.0 KHz
      Stream size : 42.4 MiB (8%)
      Alignment : Split accross interleaves
      Interleave, duration : 40 ms (1.00 video frame)
      Interleave, preload duration : 500 ms
Семпл: http://multi-up.com/758625

picpicpicpicpicpicpicpicpicpicpicpicpicpic
Для увеличения картинки щелкните мышкой по превью

Этот торрент недоступен для скачивания без регистрации, однако доступен по публичной magnet-ссылке (источники с публичных трекеров). Перед использованием ссылки прочтите, пожалуйста Пользовательское соглашение, а также как можно дольше оставайтесь на раздаче! Для того, чтобы скачать сам торрент-файл (который видит больше источников), а также для того, чтобы поблагодарить релизера, вам необходимо зарегистрироваться. Если регистрироваться лень - вы можете также попробовать скачать релиз по нашим партнерским ссылкам ниже.

[underverse.su].t19750.torrent
Трекер: Зарегистрирован   [ 10.09.2012 02:41 ]  

Статус: проверено (by garry at 10.09.2012 08:16)
Поблагодарили: 1 человек
Тип торрента: публичный - доступные источники с открытых трекеров: 
Размер: 8,36 GB (занимает 1,91 DVDR, для записи нужно 2 болванки DVDR/RW)
 
 


Последний раз редактировалось: nemos (06.11.2014 10:04), всего редактировалось 1 раз

silver1983 Пол:Муж

10-Сен-2012 11:14

кто смотрел?

nemos Пол:Муж

13-Июн-2013 15:04

смотрел, мне понравился.

Яндекс.Метрика powered by Sphinx


В Н И М А Н И Е
Сайт не распространяет и не хранит электронные версии произведений, а лишь бесплатно и без коммерческой выгоды (не требуя взамен платы,
SMS и т.д.) предоставляет доступ к создаваемому пользователями каталогу ссылок на торрент-файлы, которые содержат только списки хеш-сумм.
Убедительная просьба с жалобами обращаться напрямую к пользователю, разместившему торрент файл.

Вверх