Loading...
Error

Ангелы войны / Сезон: 1 Серии: 1-4(Татьяна Ходаковская) [2012, Военная мелодрама, DVDRip]

Статистика раздачи
Размер:  2,74 GB   |    Зарегистрирован:  4 года 2 месяца   |    Скачан:  10 раз

Полного источника не было: 2 года

Сидов:  0  |  0 KB/s  ]   Личеров:  0  |  0 KB/s  ]

* - сиды/пиры с внешних источников

   
 
Автор Сообщение

nemos Пол:Муж

10-Сен-2012 01:02

Ангелы войны / Сезон: 1 Серии: 1-4 из 4 (Татьяна Ходаковская)


Год выпуска: 2012
Жанр: драма, военный
Страна: Украина
Режиссер: Татьяна Ходаковская
В ролях: Богдан Бенюк, Матвей Зубалевич, Александра Тюфтей, Наталья Бузько, Кирилл Полухин, Алексей Шемес, Валентин Касьян, Игорь Гнездилов, Эдуард Безродный, Борис Георгиевский
Сюжет фильма:
Во время войны на оккупированной территории организован фильтрационный немецкий лагерь «Надежда», где проводят опыты над детьми. Особой ценностью считаются близнецы — самый ценный материал для опытов. И когда из лагеря удается бежать одному из близнецов, немцы поднимают тревогу, пытаясь отыскать сбежавшего мальчишку. Это усложняет жизнь и жителям ближайшего села, и партизанскому отряду, и даже местным полицаям. В центре развития событий жизнь маленького Пети и трогательная история любви молодой пары — полицая Андрея и дочки старосты Нины. Герои раз за разом сталкиваются со смертью близких, противостоянием, недоверием и обманом. Те, кто еще вчера были друзьями, становятся самыми опасными врагами, а те, кому вчера не подали бы руки, откроются с новой стороны.


Качество видео: DVDRip

Продолжительность: 00:51:00серия
Формат: AVI
Видео: XviD, 720x400, 1 687 kbps
Аудио: русский, AC3 2.0, 224 kbps

Код:

E:\СКАЧКИ\С underverse\Angelj.voynj.(1-4.serii.iz.4).2012.XviD.DVDRip\Angelj.voynj.(4.serija.iz.4).2012.XviD.DVDRip.avi
   General
      Complete name : E:\СКАЧКИ\С underverse\Angelj.voynj.(1-4.serii.iz.4).2012.XviD.DVDRip\Angelj.voynj.(4.serija.iz.4).2012.XviD.DVDRip.avi
      Format : AVI
      Format/Info : Audio Video Interleave
      File size : 701 MiB
      Duration : 51mn 0s
      Overall bit rate : 1 921 Kbps
      Movie name : Angelj.voynj.(4.serija.iz.4).2012.D.DVDRip.ELEKTRi4KA
      Director : ELEKTRO-Am
      Writing application : VirtualDubMod 1.5.10.2 (build 2540/release)
      Copyright : ELEKTRI4KA
   Video #0
      ID : 0
      Format : MPEG-4 Visual
      Format profile : Advanced Simple@L5
      Format settings, BVOP : Yes
      Format settings, QPel : No
      Format settings, GMC : No warppoints
      Format settings, Matrix : Custom
      Codec ID : XVID
      Codec ID/Hint : XviD
      Duration : 51mn 0s
      Bit rate : 1 687 Kbps
      Width : 720 pixels
      Height : 400 pixels
      Display aspect ratio : 16:9
      Frame rate : 25.000 fps
      Color space : YUV
      Chroma subsampling : 4:2:0
      Bit depth : 8 bits
      Scan type : Progressive
      Bits/(Pixel*Frame) : 0.234
      Stream size : 615 MiB (88%)
      Writing library : XviD 1.2.1 (UTC 2008-12-04)
   Audio #1
      ID : 1
      Format : AC-3
      Format/Info : Audio Coding 3
      Mode extension : CM (complete main)
      Codec ID : 2000
      Duration : 51mn 0s
      Bit rate mode : Constant
      Bit rate : 224 Kbps
      Channel(s) : 2 channels
      Channel positions : Front: L R
      Sampling rate : 48.0 KHz
      Stream size : 81.7 MiB (12%)
      Alignment : Aligned on interleaves
      Interleave, duration : 40 ms (1.00 video frame)
      Interleave, preload duration : 512 ms
Семпл: http://multi-up.com/758616

picpicpicpicpicpicpicpicpicpicpicpic
Для увеличения картинки щелкните мышкой по превью

Этот торрент недоступен для скачивания без регистрации, однако доступен по публичной magnet-ссылке (источники с публичных трекеров). Перед использованием ссылки прочтите, пожалуйста Пользовательское соглашение, а также как можно дольше оставайтесь на раздаче! Для того, чтобы скачать сам торрент-файл (который видит больше источников), а также для того, чтобы поблагодарить релизера, вам необходимо зарегистрироваться. Если регистрироваться лень - вы можете также попробовать скачать релиз по нашим партнерским ссылкам ниже.

[underverse.su].t19749.torrent
Трекер: Зарегистрирован   [ 10.09.2012 01:02 ]  

Статус: проверено (by garry at 10.09.2012 08:15)
Поблагодарили: 1 человек
Тип торрента: публичный - доступные источники с открытых трекеров: 
Размер: 2,74 GB (занимает 0,63 DVDR, для записи нужно 1 болванка DVDR/RW)
 
 

alina180 Пол:Муж

17-Сен-2012 06:55

nemos
Уважаемый автор станьте пожалуйста на раздачу х.ф."Ангелы войны".Заранее большое
спасибо.

Aheron Пол:Муж

05-Апр-2014 21:50

Где раздача?

Яндекс.Метрика powered by Sphinx


В Н И М А Н И Е
Сайт не распространяет и не хранит электронные версии произведений, а лишь бесплатно и без коммерческой выгоды (не требуя взамен платы,
SMS и т.д.) предоставляет доступ к создаваемому пользователями каталогу ссылок на торрент-файлы, которые содержат только списки хеш-сумм.
Убедительная просьба с жалобами обращаться напрямую к пользователю, разместившему торрент файл.

Вверх