Loading...
Error

Любовь / Love (Уильям Юбэнк) [2012 г., Фантастика, драма, HDRip]

Статистика раздачи
Размер:  743 MB   |    Зарегистрирован:  4 года 2 месяца   |    Скачан:  5 раз

Полного источника не было: 5 месяцев 15 дней

Сидов:  0  |  0 KB/s  ]   Личеров:  0  |  0 KB/s  ]

* - сиды/пиры с внешних источников

   
 
Автор Сообщение

Garnett Пол:Муж

09-Сен-2012 16:47

Любовь / Love


Год выпуска: 2012
Жанр: Фантастика, драма
Страна: США
Режиссер: Уильям Юбэнк
В ролях: Ганнер Райт, Кори Ричардсон, Брэдли Хорн, Ненси Стилле, Роджер Е. Фантер, Джесси Хотчкисс, Трой Миттляйдер, Брид Кавенеу, Эмбир Чайлдерс, Б. Энтони Коэн.
Сюжет фильма:
После потери связи с Землей, астронавт Ли Миллер остается без средств к существованию на орбите, в одиночестве на борту интернациональной космической станции. Время тикает, и система жизнеобеспечения постепенно истощается. Ли сражается, пытаясь сохранить здравомыслие — это самое простое, чтобы оставаться живым. Его миром становится одинокое существование в замкнутом пространстве, До тех пор пока он не сделал никому не известное открытие на борту корабля…
Качество видео: HDRip

Продолжительность: 01:24:00
Формат: AVI
Видео: XviD, 720x400, 1098 kbps
Аудио: русский, многоголосый закадровый (профессиональный), MP3 2.0, 128.00 kbps

Код:

Общее
Полное имя : D:\Рип\Ljubоv_2011.avi
Формат : AVI
Формат/Информация : Audio Video Interleave
Размер файла : 743 Мбайт
Продолжительность : 1 ч. 24 м.
Общий поток : 1236 Кбит/сек
Программа кодирования : VirtualDubMod 1.5.10.3 | www.virtualdub-fr.org || (build 2550/release)
Библиотека кодирования : VirtualDubMod build 2550/release
Видео
Идентификатор : 0
Формат : MPEG-4 Visual
Профиль формата : Advanced Simple@L5
Параметр BVOP формата : 2
Параметр QPel формата : Нет
Параметр GMC формата : Без точки перехода
Параметр матрицы формата : Default (MPEG)
Идентификатор кодека : XVID
Идентификатор кодека/Подсказка : XviD
Продолжительность : 1 ч. 24 м.
Битрейт : 1099 Кбит/сек
Ширина : 720 пикселей
Высота : 400 пикселей
Соотношение сторон : 16:9
Частота кадров : 23,976 кадра/сек
Цветовое пространство : YUV
Субдискретизация насыщенности : 4:2:0
Битовая глубина : 8 бит
Тип развёртки : Прогрессивная
Метод сжатия : С потерями
Бит/(Пиксели*Кадры) : 0.159
Размер потока : 660 Мбайт (89%)
Библиотека кодирования : XviD 1.2.1 (UTC 2008-12-04)
Аудио
Идентификатор : 1
Формат : MPEG Audio
Версия формата : Version 1
Профиль формата : Layer 3
Идентификатор кодека : 55
Идентификатор кодека/Подсказка : MP3
Продолжительность : 1 ч. 24 м.
Вид битрейта : Постоянный
Битрейт : 128 Кбит/сек
Каналы : 2 канала
Частота : 48,0 КГц
Метод сжатия : С потерями
Размер потока : 76,9 Мбайт (10%)
Выравнивание : Соединение по промежуткам
Продолжительность промежутка : 42 мс. (1,00 видеокадр)
Время предзагрузки промежутка : 504 мс.
Библиотека кодирования : LAME3.98r
Настройки программы : -m s -V 4 -q 2 -lowpass 17 -b 128
Семпл: http://multi-up.com/738519

picpicpic
Для увеличения картинки щелкните мышкой по превью

Этот торрент недоступен для скачивания без регистрации, однако доступен по публичной magnet-ссылке (источники с публичных трекеров). Перед использованием ссылки прочтите, пожалуйста Пользовательское соглашение, а также как можно дольше оставайтесь на раздаче! Для того, чтобы скачать сам торрент-файл (который видит больше источников), а также для того, чтобы поблагодарить релизера, вам необходимо зарегистрироваться. Если регистрироваться лень - вы можете также попробовать скачать релиз по нашим партнерским ссылкам ниже.

[underverse.su].t19745.torrent
Трекер: Зарегистрирован   [ 09.09.2012 17:00 ]  

Статус: проверено (by Паукан at 09.09.2012 18:05)
Поблагодарили: пока никто не поблагодарил...
Тип торрента: публичный - доступные источники с открытых трекеров: 
Размер: 743 MB (занимает 0,17 DVDR, для записи нужно 1 болванка DVDR/RW)
 
 
Похожие темы
Форум Тема Автор Торрент Отв. Посл. сооб.
Зарубежное кино [DVDRip, Low-Res HDRip, и т.д.] Любовь / Love (Уильям Юбэнк) [2011 г., фантастика, драма, HDRip] RG NewCinema
0 | 1

0 | 781

28

26.07.2012 22:11

Зарубежное кино [DVDRip, Low-Res HDRip, и т.д.] Любовь / Love (Гаспар Ноэ) [2015 г., драма, мелодрама, WEBRip] VO makkol
28 | 0

0 | 1087

73

20.11.2015 13:00

Зарубежное кино [DVDRip, Low-Res HDRip, и т.д.] Любовь / Love (Гаспар Ноэ) [2015 г., драма, мелодрама, HDRip] MVO makkol
47 | 0

0 | 580

47

02.12.2015 22:52

Зарубежное кино [HDDVDRip / BDRip / WEB-DL / HDTV 1080/720р] Любовь / Love (Гаспар Ноэ) [2015 г., драма, мелодрама, WEBRip 720p] VO + Original makkol
31 | 0

0 | 2444

55

20.11.2015 13:11

Зарубежное кино [HDDVDRip / BDRip / WEB-DL / HDTV 1080/720р] Любовь / Love (Гаспар Ноэ) [2015 г., драма, мелодрама, BDRip 720p] MVO + Original makkol
1 | 0

0 | 596

30

02.12.2015 23:00


Яндекс.Метрика powered by Sphinx


В Н И М А Н И Е
Сайт не распространяет и не хранит электронные версии произведений, а лишь бесплатно и без коммерческой выгоды (не требуя взамен платы,
SMS и т.д.) предоставляет доступ к создаваемому пользователями каталогу ссылок на торрент-файлы, которые содержат только списки хеш-сумм.
Убедительная просьба с жалобами обращаться напрямую к пользователю, разместившему торрент файл.

Вверх