Loading...
Error

Люди в черном 3 / Men in Black 3 (Барри Зонненфельд) [2012 г., фантастика, боевик, комедия, BDRip-AVC]

Статистика раздачи
Размер:  2,18 GB   |    Зарегистрирован:  4 года 2 месяца   |    Скачан:  45 раз

Полного источника не было: 1 год 2 месяца

Сидов:  0  |  0 KB/s  ]   Личеров:  0  |  0 KB/s  ]

* - сиды/пиры с внешних источников

   
 
Автор Сообщение

Garnett Пол:Муж

09-Сен-2012 16:39

Люди в черном 3 / Men in Black 3


Год выпуска: 2012
Жанр: фантастика, боевик, комедия
Страна: США
Режиссер: Барри Зонненфельд
В ролях: Уилл Смит (Agent J), Джош Бролин (Young Agent K), Томми Ли Джонс (Agent K), Джемейн Клемент (Boris The Animal), Майкл Стулбарг (Griffin), Эмма Томпсон (Agent O), Элис Ив (Young Agent O), Майк Колтер (Colonel), Билл Хэйдер (Andy Warhol), Майкл Чернус (Jeffrey Price), Николь Шерзингер (Boris's Girlfriend), Дэвид Раш (Agent X)
Сюжет фильма:
Агент Джей узнает, что никакого защитного галактического щита, способного отразить иноземный удар, не существует. Агент Кей не построил его, потому что был убит в 1969 году. Агент Джей должен совершить путешествие во времени, чтобы спасти Землю и жизнь напарника.
Качество видео: BDRip-AVC

Продолжительность: 01:45:50
Формат: MKV
Видео: x264, 960x520, 2054 Kbps
Исходник: Men In Black 3 2012 Blu-Ray 1080p HDCLUB
Аудио 1: AC3 / 448 Kbps / 5.1 / 48 kHz / Russian / Dub
Аудио 2: AC3 / 448 Kbps / 5.1 / 48 kHz / English / Original
Субтитры: русские, английские
Формат субтитров: softsub (SRT)

Код:

General
Complete name : Men.In.Black.3.2012.BDRip-AVC.mkv
Format : Matroska
Format version : Version 2
File size : 2.18 GiB
Duration : 1h 45mn
Overall bit rate : 2 952 Kbps
Encoded date : UTC 2012-09-09 08:08:11
Writing application : mkvmerge v5.4.0 ('Piper') built on Mar 10 2012 13:34:39
Writing library : libebml v1.2.3 + libmatroska v1.3.0
Video
ID : 1
Format : AVC
Format/Info : Advanced Video Codec
Format profile : High@L4.1
Format settings, CABAC : Yes
Format settings, ReFrames : 12 frames
Codec ID : V_MPEG4/ISO/AVC
Duration : 1h 45mn
Bit rate : 2 054 Kbps
Width : 960 pixels
Height : 520 pixels
Display aspect ratio : 1.85:1
Frame rate : 23.976 fps
Color space : YUV
Chroma subsampling : 4:2:0
Bit depth : 8 bits
Scan type : Progressive
Bits/(Pixel*Frame) : 0.172
Stream size : 1.48 GiB (68%)
Title : Men In Black 3 2012 BDRip-AVC
Writing library : x264 core 122 r2184 5c85e0a
Encoding settings : cabac=1 / ref=12 / deblock=1:-3:-3 / analyse=0x3:0x113 / me=umh / subme=11 / psy=1 / psy_rd=1.10:0.00 / mixed_ref=1 / me_range=24 / chroma_me=1 / trellis=2 / 8x8dct=1 / cqm=0 / deadzone=21,11 / fast_pskip=1 / chroma_qp_offset=-2 / threads=6 / sliced_threads=0 / nr=0 / decimate=1 / interlaced=0 / bluray_compat=0 / constrained_intra=0 / bframes=8 / b_pyramid=2 / b_adapt=2 / b_bias=0 / direct=3 / weightb=1 / open_gop=0 / weightp=2 / keyint=250 / keyint_min=23 / scenecut=40 / intra_refresh=0 / rc_lookahead=60 / rc=2pass / mbtree=1 / bitrate=2054 / ratetol=1.0 / qcomp=0.60 / qpmin=0 / qpmax=69 / qpstep=4 / cplxblur=20.0 / qblur=0.5 / ip_ratio=1.40 / aq=1:1.50
Default : Yes
Forced : No
Audio #1
ID : 2
Format : AC-3
Format/Info : Audio Coding 3
Mode extension : CM (complete main)
Format settings, Endianness : Big
Codec ID : A_AC3
Duration : 1h 45mn
Bit rate mode : Constant
Bit rate : 448 Kbps
Channel(s) : 6 channels
Channel positions : Front: L C R, Side: L R, LFE
Sampling rate : 48.0 KHz
Bit depth : 16 bits
Compression mode : Lossy
Stream size : 339 MiB (15%)
Title : RUS AC3 448 Kbps 6ch Dub
Language : Russian
Default : Yes
Forced : No
Audio #2
ID : 3
Format : AC-3
Format/Info : Audio Coding 3
Mode extension : CM (complete main)
Format settings, Endianness : Big
Codec ID : A_AC3
Duration : 1h 45mn
Bit rate mode : Constant
Bit rate : 448 Kbps
Channel(s) : 6 channels
Channel positions : Front: L C R, Side: L R, LFE
Sampling rate : 48.0 KHz
Bit depth : 16 bits
Compression mode : Lossy
Stream size : 339 MiB (15%)
Title : ENG AC3 448 Kbps 6ch Original
Language : English
Default : No
Forced : No
Text #1
ID : 4
Format : UTF-8
Codec ID : S_TEXT/UTF8
Codec ID/Info : UTF-8 Plain Text
Title : RUS Subtitles Full
Language : Russian
Default : No
Forced : No
Text #2
ID : 5
Format : UTF-8
Codec ID : S_TEXT/UTF8
Codec ID/Info : UTF-8 Plain Text
Title : ENG Subtitles Full
Language : English
Default : No
Forced : No
Menu
00:00:00.000 : :Chapter 01
00:06:09.577 : :Chapter 02
00:11:27.478 : :Chapter 03
00:16:58.809 : :Chapter 04
00:22:36.229 : :Chapter 05
00:31:24.632 : :Chapter 06
00:37:36.420 : :Chapter 07
00:42:43.018 : :Chapter 08
00:48:55.849 : :Chapter 09
00:53:58.235 : :Chapter 10
00:59:27.772 : :Chapter 11
01:05:52.782 : :Chapter 12
01:11:56.312 : :Chapter 13
01:19:50.619 : :Chapter 14
01:27:57.063 : :Chapter 15
01:35:30.683 : :Chapter 16x264 [info]: frame I:1728 Avg QP:16.65 size: 88385
x264 [info]: frame P:32697 Avg QP:20.43 size: 20914
x264 [info]: frame B:117832 Avg QP:21.41 size: 6737
x264 [info]: consecutive B-frames: 2.3% 2.0% 10.2% 18.0% 17.2% 38.5% 6.2% 2.5% 3.0%
picpicpic
Для увеличения картинки щелкните мышкой по превью

Этот торрент недоступен для скачивания без регистрации, однако доступен по публичной magnet-ссылке (источники с публичных трекеров). Перед использованием ссылки прочтите, пожалуйста Пользовательское соглашение, а также как можно дольше оставайтесь на раздаче! Для того, чтобы скачать сам торрент-файл (который видит больше источников), а также для того, чтобы поблагодарить релизера, вам необходимо зарегистрироваться. Если регистрироваться лень - вы можете также попробовать скачать релиз по нашим партнерским ссылкам ниже.

[underverse.su].t19744.torrent
Трекер: Зарегистрирован   [ 09.09.2012 16:39 ]  

Статус: проверено (by Паукан at 09.09.2012 16:45)
Поблагодарили: 2 человека
Тип торрента: публичный - доступные источники с открытых трекеров: 
Размер: 2,18 GB (занимает 1/2 DVDR, для записи нужно 1 болванка DVDR/RW)
 
 
Похожие темы
Форум Тема Автор Торрент Отв. Посл. сооб.
Зарубежное кино [DVDRip, Low-Res HDRip, и т.д.] Люди в черном 3 / Men in Black 3 (Барри Зонненфельд) [2012 г., фантастика, боевик, комедия, приключения, BDRip] 90ytr90
31 | 0

1 | 1382

115

08.09.2012 05:18

Зарубежное кино [DVDRip, Low-Res HDRip, и т.д.] Люди в черном 3 / Men in Black 3 (Барри Зонненфельд) [2012 г., фантастика, боевик, комедия, приключения, BDRip-AVC] Dub + Original Garnett
2 | 0

0 | 1599

46

01.11.2012 11:48

Зарубежное кино [DVDRip, Low-Res HDRip, и т.д.] Люди в черном 3 / Men in Black 3 (Барри Зонненфельд) [2012, фантастика, боевик, комедия, приключения, HDRip] AVO (Гаврилов) Garnett
13 | 0

0 | 1658

13

15.12.2012 18:46

Зарубежное кино HQ Люди в черном 3 / Men in Black 3 (Барри Зонненфельд) [2012 г., фантастика, боевик, комедия, приключения, HDRip] (Rus, Ukr, Eng) HQ Underverse HQ Underverse
0 | 0

3 | 1221

90

28.02.2013 10:57

* Архив Люди в черном 2 / Men in Black II (Барри Зонненфельд) [2002 г., фантастика, боевик, комедия, DVDRip] Flash

1 | 1386

29.08.2010 23:52

Allozio 

10-Сен-2012 13:12

столько полетов сверху вниз я еще не видел! :ROFL:
эмоции только положительные!
автору - спасибо

SergantTM Пол:Муж

13-Сен-2012 18:36

Фильм просто супер, смешной, интересный сюжет, я под столом валялся :lol: - рекомендую к просмотру.

Яндекс.Метрика powered by Sphinx


В Н И М А Н И Е
Сайт не распространяет и не хранит электронные версии произведений, а лишь бесплатно и без коммерческой выгоды (не требуя взамен платы,
SMS и т.д.) предоставляет доступ к создаваемому пользователями каталогу ссылок на торрент-файлы, которые содержат только списки хеш-сумм.
Убедительная просьба с жалобами обращаться напрямую к пользователю, разместившему торрент файл.

Вверх