Loading...
Error

Танковая бригада / The Tank Brigade / Tankova brigada (Иво Томан / Ivo Toman) [1955, Чехословакия, Военный, драма, DVDRip] AVO Юрий Живов

Статистика раздачи
Размер:  1,37 GB   |    Зарегистрирован:  4 года 2 месяца   |    Скачан:  24 раза

Полного источника не было: 7 месяцев

Сидов:  0  |  0 KB/s  ]   Личеров:  0  |  0 KB/s  ]

* - сиды/пиры с внешних источников

   
 
Автор Сообщение

Bugor Пол:Муж

09-Сен-2012 15:36

Танковая бригада / The Tank Brigade / Tanková brigáda

Страна: Чехословакия
Жанр: Военный, драма
Год выпуска: 1955
Продолжительность: 01:32:21

Перевод: Авторский (одноголосый закадровый) Юрий Живов
Cубтитры: нет
Режиссер: Иво Томан / Ivo Toman

В ролях: Отомар Крейча, Бедрич Прокош, Зденек Дите, Мартин Ружек, Владимир Бичик, Юлиус Пантик, Яна Дитетова, Ладислав Богач, Милослав Голуб, Ольдржих Велен, Иржи Догнал

Описание: На всех фронтах от Балтийского моря до Черного, Советская Армия крушила наступающего врага. В тяжелых, кровавых боях за горный перевал Дукла, войска маршала Конева вплотную подошли к границам Чехословакии. В батальных сценах принимали участие 3 тысячи бойцов Чехословацкой Народной Армии. Фильм снят в 1955 году, поэтому радует наличие огромного количества аутеничной бронетехники на ходу. Можно увидеть в кадре реальные модели немецких и советских танков, бронемобилей и артиллерии. Вооружение и военная форма солдат соответствует времени и месту проведения боев.
Качество видео: DVDRip
Формат видео: AVI

Видео: XviD build 50, 688x528 (1.30:1), 25 fps, 1916 kbps avg
Аудио: AC3 Dolby Digital, 2/0 (L,R) ch, 192.00 kbps avg
General
Complete name : D:\НА РУТРЕКЕР\Tankovaya.Brigada.1955.XviD.DVDRip-Dego.avi
Format : AVI
Format/Info : Audio Video Interleave
File size : 1.37 GiB
Duration : 1h 32mn
Overall bit rate : 2 118 Kbps
Writing application : VirtualDubMod 1.5.10.2 (build 2540/release)
Writing library : VirtualDubMod build 2540/release

Video
ID : 0
Format : MPEG-4 Visual
Format profile : AdvancedSimple@L5
Format settings, BVOP : Yes
Format settings, QPel : No
Format settings, GMC : No warppoints
Format settings, Matrix : Default (MPEG)
Codec ID : XVID
Codec ID/Hint : XviD
Duration : 1h 32mn
Bit rate : 1 917 Kbps
Width : 688 pixels
Height : 528 pixels
Display aspect ratio : 4/3
Frame rate : 25.000 fps
Resolution : 24 bits
Colorimetry : 4:2:0
Scan type : Progressive
Bits/(Pixel*Frame) : 0.211
Stream size : 1.24 GiB (90%)
Writing library : XviD 1.2.1 (UTC 2008-12-04)

Audio
ID : 1
Format : AC-3
Format/Info : Audio Coding 3
Codec ID : 2000
Duration : 1h 32mn
Bit rate mode : Constant
Bit rate : 192 Kbps
Channel(s) : 2 channels
Channel positions : L R
Sampling rate : 48.0 KHz
Stream size : 127 MiB (9%)
Alignment : Split accross interleaves
Interleave, duration : 40 ms (1.00 video frame)
Interleave, preload duration : 500 ms

Этот торрент недоступен для скачивания без регистрации, однако доступен по публичной magnet-ссылке (источники с публичных трекеров). Перед использованием ссылки прочтите, пожалуйста Пользовательское соглашение, а также как можно дольше оставайтесь на раздаче! Для того, чтобы скачать сам торрент-файл (который видит больше источников), а также для того, чтобы поблагодарить релизера, вам необходимо зарегистрироваться. Если регистрироваться лень - вы можете также попробовать скачать релиз по нашим партнерским ссылкам ниже.

[underverse.su].t19741.torrent
Трекер: Зарегистрирован   [ 09.09.2012 15:40 ]  

Статус: проверено (by Паукан at 09.09.2012 15:59)
Поблагодарили: 3 человека
Тип торрента: публичный - доступные источники с открытых трекеров: 
Размер: 1,37 GB (занимает 0,31 DVDR, для записи нужно 1 болванка DVDR/RW)
 
 

alina180 Пол:Муж

17-Сен-2012 06:42

BugorBugor

Уважаемый автор станьте пожалуйста на раздачу х.ф." Танковая бригада". Заранее большое спасибо.

Яндекс.Метрика powered by Sphinx


В Н И М А Н И Е
Сайт не распространяет и не хранит электронные версии произведений, а лишь бесплатно и без коммерческой выгоды (не требуя взамен платы,
SMS и т.д.) предоставляет доступ к создаваемому пользователями каталогу ссылок на торрент-файлы, которые содержат только списки хеш-сумм.
Убедительная просьба с жалобами обращаться напрямую к пользователю, разместившему торрент файл.

Вверх