Loading...
Error

Все прекрасно / Tout est parfait (Ив Кристиан Форнье) [2008 г., драма, DVDRip]

 
Автор Сообщение

DarkAngel Пол:Муж

09-Сен-2012 15:14

Все прекрасно / Tout est parfait


Год выпуска: 2008
Жанр: драма
Страна: Канада
Режиссер: Ив Кристиан Форнье
В ролях: Maxime Dumontier, Хлоя Буржуа, Maxime Bessette, Jean-Noel Raymond-Jetté, Нильс Шнайдер, Sébastien Bergeron-Carranza, Норманд Д’Амур, Ани Паскаль, Клод Леголт, Мари Турджеон
Сюжет фильма:
Джош, обыкновенный парень, который живёт в пригороде, зажатый между школой, шахтой и скейт-парком. Однажды утром, он находит тело своего друга Томаса. Далее, он обнаруживает, что ещё трое, его самых лучших друзей, тоже покончили жизнь самоубийством. Как единственный оставшийся в живых, Джош все больше и больше отдаляется от окружающего его мира. Только Миа, девушка его лучшего друга, поддерживает его. Больше вопросов, чем ответов.

  • Мировая премьера: 9 февраля 2008


Качество видео: DVDRip

Продолжительность: 01:58:40
Формат: AVI
Видео: XviD, 672x352 (1.91:1), 23.976 fps, ~1273 kbps avg, 0.22 bit/pixel
Аудио: русский, двухголосый закадровый (любительский), AC3 5.1, 48 kHz, ~384 kbps
Субтитры: вшитые, русский, hardsub (неотключаемые) - только песни

Код:

D:\ОЗВУЧКА\ГОТОВОЕ\ФИЛЬМЫ\ВСЕ ПРЕКРАСНО\Vse.Prekrasno.2008.ViruseProject.avi
 General
 Complete name : D:\ОЗВУЧКА\ГОТОВОЕ\ФИЛЬМЫ\ВСЕ ПРЕКРАСНО\Vse.Prekrasno.2008.ViruseProject.avi
 Format : AVI
 Format/Info : Audio Video Interleave
 File size : 1.38 GiB
 Duration : 1h 58mn
 Overall bit rate : 1 666 Kbps
 Writing application : VirtualDubMod 1.5.10.2 (build 2540/release)
 Writing library : VirtualDubMod build 2540/release
 Video #0
 ID : 0
 Format : MPEG-4 Visual
 Format profile : Advanced Simple@L5
 Format settings, BVOP : 2
 Format settings, QPel : No
 Format settings, GMC : No warppoints
 Format settings, Matrix : Default (H.263)
 Muxing mode : Packed bitstream
 Codec ID : XVID
 Codec ID/Hint : XviD
 Duration : 1h 58mn
 Bit rate : 1 273 Kbps
 Width : 672 pixels
 Height : 352 pixels
 Display aspect ratio : 1.909
 Frame rate : 23.976 fps
 Color space : YUV
 Chroma subsampling : 4:2:0
 Bit depth : 8 bits
 Scan type : Progressive
 Compression mode : Lossy
 Bits/(Pixel*Frame) : 0.225
 Stream size : 1.06 GiB (76%)
 Writing library : XviD 64
 Audio #1
 ID : 1
 Format : AC-3
 Format/Info : Audio Coding 3
 Mode extension : CM (complete main)
 Format settings, Endianness : Big
 Codec ID : 2000
 Duration : 1h 58mn
 Bit rate mode : Constant
 Bit rate : 384 Kbps
 Channel(s) : 6 channels
 Channel positions : Front: L C R, Side: L R, LFE
 Sampling rate : 48.0 KHz
 Bit depth : 16 bits
 Compression mode : Lossy
 Stream size : 325 MiB (23%)
 Alignment : Split accross interleaves
 Interleave, duration : 42 ms (1.00 video frame)
 Interleave, preload duration : 500 ms
picpicpic
Для увеличения картинки щелкните мышкой по превью
[underverse.su].t19735.torrent
Трекер: Не зарегистрирован

Скачать

14 KB

Добавлен: 09.09.2012 15:14
Скачано: 0 раз  [ Список скачавших ]
   
 

Яндекс.Метрика powered by Sphinx


В Н И М А Н И Е
Сайт не распространяет и не хранит электронные версии произведений, а лишь бесплатно и без коммерческой выгоды (не требуя взамен платы,
SMS и т.д.) предоставляет доступ к создаваемому пользователями каталогу ссылок на торрент-файлы, которые содержат только списки хеш-сумм.
Убедительная просьба с жалобами обращаться напрямую к пользователю, разместившему торрент файл.

Вверх