Loading...
Error

Жажда странствий / Страсть к перемене мест / Wanderlust (Дэвид Уэйн / David Wain) [2012 г., комедия, BDRip-AVC]

Статистика раздачи
Размер:  2,18 GB   |    Зарегистрирован:  4 года 3 месяца   |    Скачан:  11 раз

Полного источника не было: 24 дня

Сидов:  0  |  0 KB/s  ]   Личеров:  0  |  0 KB/s  ]

* - сиды/пиры с внешних источников

   
 
Автор Сообщение

Garnett Пол:Муж

08-Сен-2012 16:01

Жажда странствий / Страсть к перемене мест / Wanderlust


Год выпуска: 2012
Жанр: комедия
Страна: США
Режиссер: Дэвид Уэйн / David Wain
В ролях: Пол Радд, Дженнифер Энистон, Малин Акерман, Джастин Теру, Алан Алда, Кен Марино, Джо Ло Труглио, Кэтрин Хан, Керри Кенни, Лорен Эмброуз
Сюжет фильма:
Герои фильма Линда и Джордж — самые обыкновенные городские жители. И живут они в самом обыкновенном Нью-Йорке. Но что делать, когда быт и окружающие тебя люди, то, чем ты занимаешься, да и вообще всё вокруг, начинает тебя жутко раздражать? Выход один — сменить обстановку. Так и поступает семейная пара, меняя суматошный Нью-Йорк на более спокойный небольшой городок, чтобы отдохнуть, а заодно приобщиться к тамошней культуре.
Качество видео: BDRip-AVC
Исходник: Blu-Ray Remux (1080p)

Продолжительность: 01:38:06
Формат: MKV
Видео: x264, 928x502, 2404 kbps
Аудио 1: русский (AC3, 6 ch, 48 kHz, 384 kbps)
Аудио 2: английский (AC3, 6 ch, 48 kHz, 384 kbps)
Cубтитры: русские, английские, украинские
Формат субтитров: softsub (SRT)

Код:

General
Unique ID : 237096978662882512358284590733789032254 (0xB25F379369234A018371136A31B4EF3E)
Complete name : D:\Zhazhda.stranstvij.2012.x264.BDRip.(AVC).fanatus (1).mkv
Format : Matroska
Format version : Version 2
File size : 2.18 GiB
Duration : 1h 38mn
Overall bit rate : 3 175 Kbps
Movie name : Wanderlust (2012) - fanatus
Encoded date : UTC 2012-09-07 10:45:19
Writing application : mkvmerge v3.4.0 ('Rapunzel') сборка от May 15 2010 09:38:20
Writing library : libebml v0.8.0 + libmatroska v0.9.0
Attachment : Yes
Video
ID : 1
Format : AVC
Format/Info : Advanced Video Codec
Format profile : High@L4.1
Format settings, CABAC : Yes
Format settings, ReFrames : 10 frames
Codec ID : V_MPEG4/ISO/AVC
Duration : 1h 38mn
Bit rate : 2 404 Kbps
Width : 928 pixels
Height : 502 pixels
Display aspect ratio : 1.85:1
Frame rate : 23.976 fps
Color space : YUV
Chroma subsampling : 4:2:0
Bit depth : 8 bits
Scan type : Progressive
Bits/(Pixel*Frame) : 0.215
Stream size : 1.61 GiB (74%)
Title : Wanderlust (2012)
Writing library : x264 core 125 r2200 999b753
Encoding settings : cabac=1 / ref=10 / deblock=1:-2:-2 / analyse=0x3:0x133 / me=umh / subme=11 / psy=1 / psy_rd=1.00:0.05 / mixed_ref=1 / me_range=32 / chroma_me=1 / trellis=2 / 8x8dct=1 / cqm=0 / deadzone=21,11 / fast_pskip=0 / chroma_qp_offset=-3 / threads=16 / lookahead_threads=2 / sliced_threads=0 / nr=0 / decimate=0 / interlaced=0 / bluray_compat=0 / constrained_intra=0 / bframes=12 / b_pyramid=2 / b_adapt=2 / b_bias=0 / direct=3 / weightb=1 / open_gop=0 / weightp=2 / keyint=240 / keyint_min=23 / scenecut=40 / intra_refresh=0 / rc_lookahead=80 / rc=2pass / mbtree=1 / bitrate=2404 / ratetol=1.0 / qcomp=0.65 / qpmin=0 / qpmax=69 / qpstep=4 / cplxblur=20.0 / qblur=0.5 / ip_ratio=1.40 / aq=2:0.80
Language : English
Default : Yes
Forced : No
Audio #1
ID : 2
Format : AC-3
Format/Info : Audio Coding 3
Mode extension : CM (complete main)
Format settings, Endianness : Big
Codec ID : A_AC3
Duration : 1h 38mn
Bit rate mode : Constant
Bit rate : 384 Kbps
Channel(s) : 6 channels
Channel positions : Front: L C R, Side: L R, LFE
Sampling rate : 48.0 KHz
Bit depth : 16 bits
Compression mode : Lossy
Stream size : 269 MiB (12%)
Title : Dub
Language : Russian
Default : Yes
Forced : Yes
Audio #2
ID : 3
Format : AC-3
Format/Info : Audio Coding 3
Mode extension : CM (complete main)
Format settings, Endianness : Big
Codec ID : A_AC3
Duration : 1h 38mn
Bit rate mode : Constant
Bit rate : 384 Kbps
Channel(s) : 6 channels
Channel positions : Front: L C R, Side: L R, LFE
Sampling rate : 48.0 KHz
Bit depth : 16 bits
Compression mode : Lossy
Stream size : 269 MiB (12%)
Title : Original
Language : English
Default : No
Forced : No
Text #1
ID : 4
Format : UTF-8
Codec ID : S_TEXT/UTF8
Codec ID/Info : UTF-8 Plain Text
Title : Forced
Language : Russian
Default : Yes
Forced : Yes
Text #2
ID : 5
Format : UTF-8
Codec ID : S_TEXT/UTF8
Codec ID/Info : UTF-8 Plain Text
Title : Full
Language : Russian
Default : No
Forced : No
Text #3
ID : 6
Format : UTF-8
Codec ID : S_TEXT/UTF8
Codec ID/Info : UTF-8 Plain Text
Title : Full
Language : English
Default : No
Forced : No
Text #4
ID : 7
Format : UTF-8
Codec ID : S_TEXT/UTF8
Codec ID/Info : UTF-8 Plain Text
Title : Full SDH
Language : English
Default : No
Forced : No
Text #5
ID : 8
Format : UTF-8
Codec ID : S_TEXT/UTF8
Codec ID/Info : UTF-8 Plain Text
Title : Full
Language : Ukrainian
Default : No
Forced : No
Menu
00:00:00.000 : en:Micro-Loft
00:05:10.893 : en:HBO
00:09:37.159 : en:Elysium
00:14:10.307 : en:Didgeridoo
00:17:44.480 : en:Skinny Style
00:24:51.406 : en:Rick's
00:30:08.181 : en:Welcome Home
00:35:12.318 : en:Two Princes
00:40:33.514 : en:Truth Circle
00:47:04.905 : en:Pond
00:52:36.194 : en:Fly
00:57:17.475 : en:We're Staying
01:03:12.997 : en:Mirror
01:08:06.290 : en:Birth
01:12:11.243 : en:I'm Leaving
01:16:45.559 : en:Back at Rick's
01:21:18.456 : en:Nudist Winemakers
01:24:55.799 : en:Fight
01:28:34.475 : en:Atlanta PM
01:32:03.768 : en:End Credits
picpicpic
Для увеличения картинки щелкните мышкой по превью

Этот торрент недоступен для скачивания без регистрации, однако доступен по публичной magnet-ссылке (источники с публичных трекеров). Перед использованием ссылки прочтите, пожалуйста Пользовательское соглашение, а также как можно дольше оставайтесь на раздаче! Для того, чтобы скачать сам торрент-файл (который видит больше источников), а также для того, чтобы поблагодарить релизера, вам необходимо зарегистрироваться. Если регистрироваться лень - вы можете также попробовать скачать релиз по нашим партнерским ссылкам ниже.

[underverse.su].t19700.torrent
Трекер: Зарегистрирован   [ 08.09.2012 16:01 ]  

Статус: проверено (by Паукан at 08.09.2012 21:16)
Поблагодарили: пока никто не поблагодарил...
Тип торрента: публичный - доступные источники с открытых трекеров: 
Размер: 2,18 GB (занимает 1/2 DVDR, для записи нужно 1 болванка DVDR/RW)
 
 
Похожие темы
Форум Тема Автор Торрент Отв. Посл. сооб.
Зарубежное кино [DVDRip, Low-Res HDRip, и т.д.] Жажда странствий / Страсть к перемене мест / Wanderlust (Дэвид Уэйн) [2012 г., мелодрама, комедия, HDRip] [лицензия] 90ytr90
4 | 0

2 | 660

19

03.04.2013 14:07


Яндекс.Метрика powered by Sphinx


В Н И М А Н И Е
Сайт не распространяет и не хранит электронные версии произведений, а лишь бесплатно и без коммерческой выгоды (не требуя взамен платы,
SMS и т.д.) предоставляет доступ к создаваемому пользователями каталогу ссылок на торрент-файлы, которые содержат только списки хеш-сумм.
Убедительная просьба с жалобами обращаться напрямую к пользователю, разместившему торрент файл.

Вверх