Loading...
Error

«Стервы» / Серии: 1-32 [32] (Артем Марков, Виталий Скородумов, Филипп Коршунов) [2012 г., детектив, криминал, SATRip]

Статистика раздачи
Размер:  16,06 GB   |    Зарегистрирован:  3 года 4 месяца   |    Скачан:  10 раз

Полного источника не было: 1 год 3 месяца

Сидов:  0  |  0 KB/s  ]   Личеров:  0  |  0 KB/s  ]

* - сиды/пиры с внешних источников

   
 
Автор Сообщение

nemos Пол:Муж

08-Сен-2012 15:38

Стервы


Год выпуска: 2012
Жанр: Детектив, Криминал
Страна: Россия
Режиссер: Артем Марков, Виталий Скородумов, Филипп Коршунов
В ролях: Янина Бугрова, Галина Виноградова, Ян Воробьев, Андрей Денисов, Дмитрий Митюрич, Сара Окс, Дмитрий Чукин, Владислав Шкляев, Роман Чора, Оксана Большева
Сюжет фильма:
В отделе нравов при МВД есть особое подразделение, о существовании которого знает только только полковник милиции Игнатов. Через него поступают в отдел задания, связанные с особыми преступлениями, такими как секс трафик, порнобизнес и др.


Качество видео: SatRip

Продолжительность: 00:42:26 серия
Формат: AVI
Видео: XviD, 704x448, 1495 kbps
Аудио: русский, MP3 2.0, 128 kbps

Код:

D:\СКАЧКИ-2\c NO NA MEиКИНОЗАЛ тв\Стервы_2012\Стервы.32..avi
   General
      Complete name : D:\СКАЧКИ-2\c NO NA MEиКИНОЗАЛ тв\Стервы_2012\Стервы.32..avi
      Format : AVI
      Format/Info : Audio Video Interleave
      File size : 496 MiB
      Duration : 42mn 26s
      Overall bit rate : 1 633 Kbps
      Writing application : VirtualDubMod 1.5.10.2 (build 2540/release)
      Writing library : VirtualDub build 32507/release
   Video #0
      ID : 0
      Format : MPEG-4 Visual
      Format profile : Advanced Simple@L5
      Format settings, BVOP : Yes
      Format settings, QPel : No
      Format settings, GMC : No warppoints
      Format settings, Matrix : Default (MPEG)
      Muxing mode : Packed bitstream
      Codec ID : XVID
      Codec ID/Hint : XviD
      Duration : 42mn 26s
      Bit rate : 1 495 Kbps
      Width : 704 pixels
      Height : 448 pixels
      Display aspect ratio : 1.571
      Frame rate : 25.000 fps
      Color space : YUV
      Chroma subsampling : 4:2:0
      Bit depth : 8 bits
      Scan type : Progressive
      Bits/(Pixel*Frame) : 0.190
      Stream size : 454 MiB (92%)
      Writing library : XviD 1.2.1 (UTC 2008-12-04)
   Audio #1
      ID : 1
      Format : MPEG Audio
      Format version : Version 1
      Format profile : Layer 3
      Mode : Joint stereo
      Mode extension : MS Stereo
      Codec ID : 55
      Codec ID/Hint : MP3
      Duration : 42mn 26s
      Bit rate mode : Constant
      Bit rate : 128 Kbps
      Channel(s) : 2 channels
      Sampling rate : 48.0 KHz
      Stream size : 38.9 MiB (8%)
      Alignment : Aligned on interleaves
      Interleave, duration : 40 ms (1.00 video frame)
      Interleave, preload duration : 504 ms
      Writing library : LAME3.90.3
Семпл: http://multi-up.com/757995

picpicpicpicpicpicpicpicpicpicpicpic
Для увеличения картинки щелкните мышкой по превью
Сериал который был выложен и зарегистрирован более двух месяцев назад буду раздавать с 23.00ч до 06.00ч утра ( вина в этом немоя, а пользователей которые неподдерживают раздачу)

Этот торрент недоступен для скачивания без регистрации, однако доступен по публичной magnet-ссылке (источники с публичных трекеров). Перед использованием ссылки прочтите, пожалуйста Пользовательское соглашение, а также как можно дольше оставайтесь на раздаче! Для того, чтобы скачать сам торрент-файл (который видит больше источников), а также для того, чтобы поблагодарить релизера, вам необходимо зарегистрироваться. Если регистрироваться лень - вы можете также попробовать скачать релиз по нашим партнерским ссылкам ниже.

[underverse.su].t28966.torrent
Трекер: Зарегистрирован   [ 05.07.2013 15:20 ]  

Статус: проверено (by Чертёнок at 05.07.2013 16:39)
Поблагодарили: 2 человека
Тип торрента: публичный - доступные источники с открытых трекеров: 
Размер: 16,06 GB (занимает 3,67 DVDR, для записи нужно 4 болванки DVDR/RW)
 
 


Последний раз редактировалось: nemos (06.11.2014 11:21), всего редактировалось 15 раз(а)

nemos Пол:Муж

05-Июн-2013 20:59

Торрент обновлен! Добавлены серии: 29,30,31,32.

Яндекс.Метрика powered by Sphinx


В Н И М А Н И Е
Сайт не распространяет и не хранит электронные версии произведений, а лишь бесплатно и без коммерческой выгоды (не требуя взамен платы,
SMS и т.д.) предоставляет доступ к создаваемому пользователями каталогу ссылок на торрент-файлы, которые содержат только списки хеш-сумм.
Убедительная просьба с жалобами обращаться напрямую к пользователю, разместившему торрент файл.

Вверх