Loading...
Error

За гранью / Beyond Borders (Мартин Кэмпбелл) [2003 г., драма, мелодрама, приключения, военный, DVDRip]

 
Автор Сообщение

BrickTM Пол:Муж

08-Сен-2012 11:00

За гранью / Beyond Borders


Год выпуска: 2003
Жанр: драма, мелодрама, приключения, военный
Страна: США
Режиссер: Мартин Кэмпбелл
В ролях: Анджелина Джоли, Клайв Оуэн, Тери Поло, Лайнас Роуч, Ноа Эммерик, Йорик ван Вагенинген, Тимоти Уэст, Кейт Троттер, Джонатан Хиггинс, Джон Гаусден
Сюжет фильма:
Молодая замужняя американка Сара Джордан, живущая в Англии, оказывается на благотворительном вечере и слышит жаркую речь, произнесенную доктором Ником Кэллахэном. Его пламенный призыв о помощи детям стран, вовлеченных в военные конфликты, перевернула жизнь Сары навсегда.

Очарованная Ником и его благородными идеями, она расстается со спокойной жизнью и, жертвуя своим благополучием, устремляется навстречу риску, опасности и… своей любви. На протяжении десяти лет судьба будет сводить Сару и Ника в разных «горячих точках» нашей планеты — в Камбодже, Эфиопии и Чечне, приготовив влюбленным страшные испытания.

  • Мировая премьера: 24 октября 2003


Качество видео: DVDRip

Продолжительность: 02:01:11
Формат: avi
Видео: DivX 5, 640x288, 1222 kbps
Аудио: русский, профессиональный (многоголосый), AC3 5.1, 384 kbps

Код:

General
Complete name                    : Beyond.Borders.avi
Format                           : AVI
Format/Info                      : Audio Video Interleave
File size                        : 1.37 GiB
Duration                         : 2h 1mn
Overall bit rate                 : 1 614 Kbps
Writing application              : VirtualDubMod 1.5.10.1 (build 2389/release)
Writing library                  : VirtualDubMod build 2389/release

Video
ID                               : 0
Format                           : MPEG-4 Visual
Format settings, BVOP            : Yes
Format settings, QPel            : No
Format settings, GMC             : No warppoints
Format settings, Matrix          : Default (H.263)
Muxing mode                      : Packed bitstream
Codec ID                         : DX50
Codec ID/Hint                    : DivX 5
Duration                         : 2h 1mn
Bit rate                         : 1 223 Kbps
Width                            : 640 pixels
Height                           : 288 pixels
Display aspect ratio             : 2.222
Frame rate                       : 23.976 fps
Resolution                       : 24 bits
Colorimetry                      : 4:2:0
Scan type                        : Progressive
Bits/(Pixel*Frame)               : 0.277
Stream size                      : 1.03 GiB (76%)
Writing library                  : DivX 5.1.1 (Maupiti) (UTC 2003-11-19)

Audio
ID                               : 1
Format                           : AC-3
Format/Info                      : Audio Coding 3
Codec ID                         : 2000
Duration                         : 2h 1mn
Bit rate mode                    : Constant
Bit rate                         : 384 Kbps
Channel(s)                       : 6 channels
Channel positions                : Front: L C R, Surround: L R, LFE
Sampling rate                    : 48.0 KHz
Stream size                      : 333 MiB (24%)
Alignment                        : Split accross interleaves
Interleave, duration             : 64 ms (1.53 video frames)
Interleave, preload duration     : 64 ms

picpicpic
Для увеличения картинки щелкните мышкой по превью
Download Для того, чтобы скачать этот торрент, необходимо залогиниться! Если у Вас нет логина на нашем трекере - зарегистрируйтесь, и он у Вас будет.

Как качать с торрент трекера  ·   Что такое torrent (торрент)  ·   Рейтинг и ограничения

 
Похожие темы
Форум Тема Автор Торрент Отв. Посл. сооб.
Зарубежное кино [DVDRip, Low-Res HDRip, и т.д.] За гранью / Over Kanten (Лауритс Мунч-Петерсен, Якоб Дитлев) [2012 г., триллер, HDRip] RG NewCinema
0 | 0

0 | 1147

30

08.08.2012 06:17

Зарубежное кино [DVDRip, Low-Res HDRip, и т.д.] За гранью / Beyond (Йозеф Руснак / Josef Rusnak) [2012 г., триллер, HDRip] MVO Garnett
4 | 1

0 | 710

14

05.12.2012 09:36

Зарубежное кино [DVDRip, Low-Res HDRip, и т.д.] За гранью / Beyond (Йозеф Руснак) [2012 г., триллер, HDRip] MVO 90ytr90
6 | 0

0 | 680

15

04.12.2012 18:31

Зарубежное кино [HDDVDRip / BDRip / WEB-DL / HDTV 1080/720р] За гранью тишины / Jenseits der Stille / Beyond Silence (Каролина Линк) [1996 г., Драма, BDRip 720p] MVO (RUS) + Original (ENG) + Subs (RUS) Ведьмочка
0 | 0

0 | 818

0

08.08.2014 20:14

Релизы За гранью жестокости: Цена ревности. Коллекционное издание / Grim Facade: Cost of Jealousy Collector's Edition [2013 г., Квест Поиск предметов] RUS [P] Станислав Карбанович
3 | 1

1 | 1638

13

09.04.2014 13:37

Релизы За гранью неведомого: Дело времени. Коллекционное издание / Beyond the Unknown: A Matter of Time CE [2014 г., Квест, Поиск Предметов] RUS [P] Станислав Карбанович
1 | 0

0 | 793

21

29.08.2014 19:25

Релизы За гранью 7: Одиночество в Тумане. Коллекционное издание / Surface 7: Alone in the Mist Collector's Edition [2015 г., Квест, Поиск Предметов] RUS [P] Станислав Карбанович
18 | 0

0 | 878

10

23.06.2015 07:05

Релизы За гранью жестокости 6: Тайные Грехи Коллекционное издание / Grim Facade 6: Hidden Sins Collector's Edition [2015 г., Квест, Поиск Предметов] RUS [P] Станислав Карбанович
35 | 0

0 | 1084

6

28.06.2015 19:03

Архив За Гранью / Fringe / Season 1 (1-20 серии) [2008-2009 г., ужасы, фантастика, триллер, драма, детектив, HDTVRip] Metall
0 | 0

11 | 2574

10

24.06.2011 16:34

Архив За гранью возможного / The Outer Limits (Марио Аццопарди, Брэд Тернер, Нилл Фернли, ...) [1995 (7 сезонов) г., ужасы, фантастика, триллер, фэнтези, драма, детектив, ..., SatRip] radjiv
0 | 0

1 | 2156

5

16.06.2011 08:09



Последний раз редактировалось: BrickTM (08.09.2012 11:13), всего редактировалось 1 раз

Паукан Пол:Муж

08-Сен-2012 11:10

BrickTM писал(а):

русский, ,
необходимо указать тип перевода

добавлено спустя 34 секунды:

BrickTM писал(а):

Тип торрента: приватный
использовать подобного рода торренты для неуникального контента не рекомендуется

Яндекс.Метрика powered by Sphinx


В Н И М А Н И Е
Сайт не распространяет и не хранит электронные версии произведений, а лишь бесплатно и без коммерческой выгоды (не требуя взамен платы,
SMS и т.д.) предоставляет доступ к создаваемому пользователями каталогу ссылок на торрент-файлы, которые содержат только списки хеш-сумм.
Убедительная просьба с жалобами обращаться напрямую к пользователю, разместившему торрент файл.

Вверх