Loading...
Error

Вики-маленький викинг 2 (Большое путешествие Вики) / Wickie auf grosser Fahrt (Кристиан Диттер) [2011 г., боевик, комедия, приключения, семейный, DVDRip] VO

Статистика раздачи
Размер:  1,67 GB   |    Зарегистрирован:  4 года 2 месяца   |    Скачан:  28 раз

Полного источника не было: 2 года

Сидов:  0  |  0 KB/s  ]   Личеров:  0  |  0 KB/s  ]

* - сиды/пиры с внешних источников

   
 
Автор Сообщение

nemos Пол:Муж

07-Сен-2012 15:58

Вики-маленький викинг 2 (Большое путешествие Вики)


Год выпуска: 2011
Жанр: боевик, комедия, приключения, семейный
Страна: Германия
Режиссер: Кристиан Диттер
В ролях: Йонас Хаммерле, Вальдемар Кобус, Валерия Эйсенбарт, Николас Ромм, Кристиан Кох, Олаф Кратке, Майк Маас, Патрик Райхель, Jörg Moukkadam, Ядеа
Сюжет фильма:
Вождь клана викингов Хальвар с нетерпением ждет, когда его сын Вики станет таким же сильным и могучим, как он. Но в отличие от своих соплеменников, Вики грубой силе предпочитает ум и смекалку. После того как Хальвара похищает его извечный враг Свен, маленького Вики выбирают вождем клана. Теперь он должен отправиться на поиски отца, а заодно по пути попытаться разыскать легендарный молот Тора.

  • Мировая премьера: 29 сентября 2011

Качество видео: DVDRip

Продолжительность: 01:36:00
Формат: AVI
Видео: XviD, 704x304, 1571 kbps
Аудио: русский, одноголосый закадровый (любительский), AC3, 6 ch, 448 kbps

Код:

E:\СКАЧКИ\С underverse\Viki.malenkij.viking.2.2011.XviD.DVDRip.avi
   General
      Complete name : E:\СКАЧКИ\С underverse\Viki.malenkij.viking.2.2011.XviD.DVDRip.avi
      Format : AVI
      Format/Info : Audio Video Interleave
      File size : 1.67 GiB
      Duration : 1h 36mn
      Overall bit rate : 2 481 Kbps
      Writing application : VirtualDubModRus 1.5.10.2 (build 2540/release)
      Writing library : VirtualDubMod build 2540/release
   Video #0
      ID : 0
      Format : MPEG-4 Visual
      Format profile : Advanced Simple@L5
      Format settings, BVOP : Yes
      Format settings, QPel : No
      Format settings, GMC : No warppoints
      Format settings, Matrix : Default (H.263)
      Codec ID : XVID
      Codec ID/Hint : XviD
      Duration : 1h 36mn
      Bit rate : 1 571 Kbps
      Width : 704 pixels
      Height : 304 pixels
      Display aspect ratio : 2.35:1
      Frame rate : 23.976 fps
      Color space : YUV
      Chroma subsampling : 4:2:0
      Bit depth : 8 bits
      Scan type : Progressive
      Bits/(Pixel*Frame) : 0.306
      Stream size : 1.06 GiB (63%)
      Writing library : XviD 1.2.1 (UTC 2008-12-04)
   Audio #1
      ID : 1
      Format : AC-3
      Format/Info : Audio Coding 3
      Mode extension : CM (complete main)
      Codec ID : 2000
      Duration : 1h 36mn
      Bit rate mode : Constant
      Bit rate : 448 Kbps
      Channel(s) : 6 channels
      Channel positions : Front: L C R, Side: L R, LFE
      Sampling rate : 44.1 KHz
      Stream size : 308 MiB (18%)
      Alignment : Split accross interleaves
      Interleave, duration : 42 ms (1.00 video frame)
      Interleave, preload duration : 500 ms
   Audio #2
      ID : 2
      Format : AC-3
      Format/Info : Audio Coding 3
      Mode extension : CM (complete main)
      Codec ID : 2000
      Duration : 1h 36mn
      Bit rate mode : Constant
      Bit rate : 448 Kbps
      Channel(s) : 6 channels
      Channel positions : Front: L C R, Side: L R, LFE
      Sampling rate : 48.0 KHz
      Stream size : 308 MiB (18%)
      Alignment : Split accross interleaves
      Interleave, duration : 42 ms (1.00 video frame)
      Interleave, preload duration : 500 ms
Семпл: http://multi-up.com/757549

picpicpicpicpicpicpicpicpicpicpicpic
Для увеличения картинки щелкните мышкой по превью

Этот торрент недоступен для скачивания без регистрации, однако доступен по публичной magnet-ссылке (источники с публичных трекеров). Перед использованием ссылки прочтите, пожалуйста Пользовательское соглашение, а также как можно дольше оставайтесь на раздаче! Для того, чтобы скачать сам торрент-файл (который видит больше источников), а также для того, чтобы поблагодарить релизера, вам необходимо зарегистрироваться. Если регистрироваться лень - вы можете также попробовать скачать релиз по нашим партнерским ссылкам ниже.

[underverse.su].t19675.torrent
Трекер: Зарегистрирован   [ 07.09.2012 15:58 ]  

Статус: проверено (by Паукан at 07.09.2012 19:48)
Поблагодарили: 1 человек
Тип торрента: публичный - доступные источники с открытых трекеров: 
Размер: 1,67 GB (занимает 0,38 DVDR, для записи нужно 1 болванка DVDR/RW)
 
 
Похожие темы
Форум Тема Автор Торрент Отв. Посл. сооб.
Зарубежное кино [DVDRip, Low-Res HDRip, и т.д.] Вики-маленький викинг / Wickie und die starken Manner (Михаэль Хербиг) [2009 г., боевик, комедия, приключения HDRip] MVO nemos
0 | 0

2 | 789

27

08.09.2012 11:39


Яндекс.Метрика powered by Sphinx


В Н И М А Н И Е
Сайт не распространяет и не хранит электронные версии произведений, а лишь бесплатно и без коммерческой выгоды (не требуя взамен платы,
SMS и т.д.) предоставляет доступ к создаваемому пользователями каталогу ссылок на торрент-файлы, которые содержат только списки хеш-сумм.
Убедительная просьба с жалобами обращаться напрямую к пользователю, разместившему торрент файл.

Вверх