Loading...
Error

Мрачные тени / Dark Shadows (Тим Бёртон) [2012 г., фэнтези, мелодрама, комедия, HDRip] (Rus, Ukr, Eng) HQ Underverse

Статистика раздачи
Размер:  2,17 GB   |    Зарегистрирован:  4 года 3 месяца   |    Скачан:  36 раз

Полного источника не было: 1 год 1 месяц

Сидов:  0  |  0 KB/s  ]   Личеров:  0  |  0 KB/s  ]

* - сиды/пиры с внешних источников

   
 
Автор Сообщение

HQ Underverse 

06-Сен-2012 17:04

Мрачные тени / Dark Shadows


Год выпуска: 2012
Жанр: фэнтези, мелодрама, комедия
Страна: США
Режиссер: Тим Бёртон
В ролях: Джонни Депп, Мишель Пфайффер, Хелена Бонем Картер, Ева Грин, Джеки Эрл Хейли, Джонни Ли Миллер, Белла Хиткот, Хлоя Грейс Морец, Гулливер МакГрат, Кристофер Ли
Сюжет фильма:
Владелец поместья Коллинвуд, Барнабас Коллинз, богат, властен и слывет неисправимым Казановой, пока не совершает роковую ошибку, разбив сердце Анжелики Бошар. Будучи ведьмой в буквальном смысле этого слова, она обрекает его на судьбу, худшую, чем сама смерть — обращает его в вампира и хоронит заживо. Два века спустя Барнабаса случайно освобождают из склепа, и тот оказывается в очень изменившемся мире 1972 года. Он возвращается в Коллинвуд и находит в руинах это некогда величественное здание. Жалкие потомки его семьи сохранились лишь немногим лучше родового гнезда, и у каждого из них есть свои «скелеты в шкафу».

  • Мировая премьера: 9 мая 2012
  • Российская премьера: 10 мая 2012, «Каро-Премьер»

|
Качество видео: HDRip

Продолжительность: 01:53:04
Формат: avi
Видео: XviD, 720x400, 1836 kbps
Аудио #1: русский, дублированный [лицензия], AC3 5.1, 448 kbps
Аудио #2: английский, оригинал, AC3 5.1, 448 kbps
Аудио #3: украинский, дублированный [лицензия], AC3 5.1, 448 kbps (отдельным файлом: здесь)
Субтитры #1: внешние, SRT, английский (на narod.ru)
Субтитры #2: внешние, SRT, русский (на narod.ru)
Субтитры #3: внешние, SRT, русский (forced) (на narod.ru)

Код:

General
Complete name                    : Z:\Видео\HQ\Мрачные тени\Dark.Shadows.2012.HDRip.XviD.AC3.Rus.D.Ukr.D.Eng.O.HQ.Underverse.avi
Format                           : AVI
Format/Info                      : Audio Video Interleave
Format profile                   : OpenDML
File size                        : 2.17 GiB
Duration                         : 1h 53mn
Overall bit rate                 : 2 751 Kbps
Writing application              : VirtualDubMod 1.5.10.2 (build 2542/release)
Writing library                  : VirtualDubMod build 2542/release

Video
ID                               : 0
Format                           : MPEG-4 Visual
Format profile                   : Streaming Video@L1
Format settings, BVOP            : Yes
Format settings, QPel            : No
Format settings, GMC             : No warppoints
Format settings, Matrix          : Custom
Muxing mode                      : Packed bitstream
Codec ID                         : XVID
Codec ID/Hint                    : XviD
Duration                         : 1h 53mn
Bit rate                         : 1 837 Kbps
Width                            : 720 pixels
Height                           : 400 pixels
Display aspect ratio             : 16/9
Frame rate                       : 23.976 fps
Resolution                       : 24 bits
Colorimetry                      : 4:2:0
Scan type                        : Progressive
Bits/(Pixel*Frame)               : 0.266
Stream size                      : 1.45 GiB (67%)
Writing library                  : XviD 64

Audio #1
ID                               : 1
Format                           : AC-3
Format/Info                      : Audio Coding 3
Codec ID                         : 2000
Duration                         : 1h 53mn
Bit rate mode                    : Constant
Bit rate                         : 448 Kbps
Channel(s)                       : 6 channels
Channel positions                : Front: L C R, Surround: L R, LFE
Sampling rate                    : 48.0 KHz
Stream size                      : 362 MiB (16%)
Alignment                        : Split accross interleaves
Interleave, duration             : 42 ms (1.00 video frame)
Interleave, preload duration     : 500 ms

Audio #2
ID                               : 2
Format                           : AC-3
Format/Info                      : Audio Coding 3
Codec ID                         : 2000
Duration                         : 1h 53mn
Bit rate mode                    : Constant
Bit rate                         : 448 Kbps
Channel(s)                       : 6 channels
Channel positions                : Front: L C R, Surround: L R, LFE
Sampling rate                    : 48.0 KHz
Stream size                      : 362 MiB (16%)
Alignment                        : Split accross interleaves
Interleave, duration             : 42 ms (1.00 video frame)
Interleave, preload duration     : 500 ms

General
Complete name                    : Z:\Видео\HQ\Мрачные тени\Dark.Shadows.2012.HDRip.XviD.AC3.Rus.D.Ukr.D.Eng.O.HQ.Underverse.UKR.ac3
Format                           : AC-3
Format/Info                      : Audio Coding 3
File size                        : 378 MiB
Duration                         : 1h 58mn
Overall bit rate                 : 448 Kbps

Audio
Format                           : AC-3
Format/Info                      : Audio Coding 3
Duration                         : 1h 58mn
Bit rate mode                    : Constant
Bit rate                         : 448 Kbps
Channel(s)                       : 6 channels
Channel positions                : Front: L C R, Surround: L R, LFE
Sampling rate                    : 48.0 KHz
Stream size                      : 378 MiB (100%)

Семпл: http://multi-up.com/757045

Релиз группы:

picpicpic
Для увеличения картинки щелкните мышкой по превью

Этот торрент недоступен для скачивания без регистрации, однако доступен по публичной magnet-ссылке (источники с публичных трекеров). Перед использованием ссылки прочтите, пожалуйста Пользовательское соглашение, а также как можно дольше оставайтесь на раздаче! Для того, чтобы скачать сам торрент-файл (который видит больше источников), а также для того, чтобы поблагодарить релизера, вам необходимо зарегистрироваться. Если регистрироваться лень - вы можете также попробовать скачать релиз по нашим партнерским ссылкам ниже.

[underverse.su].t19659.torrent
Трекер: Зарегистрирован   [ 06.09.2012 17:04 ]  

Статус: проверено (by HQ Underverse at 06.09.2012 17:05)
Поблагодарили: 3 человека
Тип торрента: публичный - доступные источники с открытых трекеров: 
Размер: 2,17 GB (занимает 1/2 DVDR, для записи нужно 1 болванка DVDR/RW)
 
 
Похожие темы
Форум Тема Автор Торрент Отв. Посл. сооб.
Зарубежное кино [DVDRip, Low-Res HDRip, и т.д.] Мрачные тени / Dark Shadows (Тим Бёртон) [2012 г., фэнтези, мелодрама, комедия, HDRip] [лицензия] 90ytr90
0 | 0

0 | 775

78

04.09.2012 04:56

Зарубежное кино [DVDRip, Low-Res HDRip, и т.д.] Мрачные тени / Dark Shadows (Тим Бёртон) [2012 г., фэнтези, мелодрама, комедия, BDRip-AVC] Dub + Original Garnett
1 | 0

1 | 856

42

02.02.2013 07:27

Зарубежное кино [DVDRip, Low-Res HDRip, и т.д.] Мрачные тени / Dark Shadows (Тим Бёртон) [2012, Комедия, мелодрама, ужасы, BDRip] Dub Garnett
0 | 0

1 | 433

4

04.02.2013 05:52

Зарубежное кино [DVDRip, Low-Res HDRip, и т.д.] Мрачные тени / Dark Shadows (Тим Бёртон) [2012, Комедия, мелодрама, ужасы, HDRip] Dub Garnett
8 | 1

0 | 1157

12

23.01.2013 11:20

maddd Пол:Муж

06-Сен-2012 20:54

Красивая картинка, красивый грим, красивая игра Джонни Деппа...больше ничего хорошего не могу сказать про фильм

Как для комедии - то смешных моментов не увидел, мелодрама только в конце
на 5/10 фильм

Яндекс.Метрика powered by Sphinx


В Н И М А Н И Е
Сайт не распространяет и не хранит электронные версии произведений, а лишь бесплатно и без коммерческой выгоды (не требуя взамен платы,
SMS и т.д.) предоставляет доступ к создаваемому пользователями каталогу ссылок на торрент-файлы, которые содержат только списки хеш-сумм.
Убедительная просьба с жалобами обращаться напрямую к пользователю, разместившему торрент файл.

Вверх