Loading...
Error

Брак по завещанию [1-2 сезоны: 20 серий из 20] (Василий Сериков) [2009-2011 г., детектив, криминал, DVDRip]

Статистика раздачи
Размер:  12,1 GB   |    Зарегистрирован:  4 года 3 месяца   |    Скачан:  3 раза

Полного источника не было: 2 года

Сидов:  0  |  0 KB/s  ]   Личеров:  0  |  0 KB/s  ]

* - сиды/пиры с внешних источников

   
 
Автор Сообщение

nemos Пол:Муж

06-Сен-2012 15:13

Брак по завещанию (1-2 сезоны: 20 серий из 20)


Год выпуска: 2009-2011
Жанр: Детектив, криминал
Страна: Россия
Режиссер: Василий Сериков
В ролях: Татьяна Арнтгольц, Александр Дьяченко, Валерий Жаков, Марина Куделинская, Наталья Лукеичева, Екатерина Мадалинская, Галина Петрова, Юлия Полынская, Нелли Пшенная, Александр Рапопорт
Сюжет фильма:
Иногда в жизни всё идёт не так, как хотелось бы… А иногда судьба преподносит неожиданные сюрпризы и предоставляет умопомрачительный шанс, который нельзя упускать! Английский миллионер Теренс Харпер оставил завещание, по которому Саше Козинцевой, девушке у которой вся жизнь идёт на перекосяк, полагается получить 9 миллионов долларов! Но есть одно, весьма непростое условие… Она должна выйти замуж за его сына. Но игра стоит свеч!…


Качество видео: DVDRip

Продолжительность: 00:49:20серия
Формат: AVI
Видео: XviD, 704х384, 720х400 , 1 282 kbps
Аудио: русский, MP3 2.0, 128 kbps

Код:

E:\СКАЧКИ\С underverse\Brak.po.zavewaniju.(1-2.sezoni.20.seriy.iz.20).2009-2011.XviD.DVDRip\Brak.po.zavewaniju.Vozvraschenie.Sandri.(2.sezon.8.seriy.iz.8).2011.XviD.DVDRip\Brak.po.zavewaniju.(2.sezon.8.serija.iz.8).2011.XviD.DVDRip.avi
   General
      Complete name : E:\СКАЧКИ\С underverse\Brak.po.zavewaniju.(1-2.sezoni.20.seriy.iz.20).2009-2011.XviD.DVDRip\Brak.po.zavewaniju.Vozvraschenie.Sandri.(2.sezon.8.seriy.iz.8).2011.XviD.DVDRip\Brak.po.zavewaniju.(2.sezon.8.serija.iz.8).2011.XviD.DVDRip.avi
      Format : AVI
      Format/Info : Audio Video Interleave
      File size : 496 MiB
      Duration : 49mn 20s
      Overall bit rate : 1 405 Kbps
      Movie name : Brak.po.zavewaniju.2.(8.serija.iz.8).2011.O.DVDRip.ELEKTRI4KA
      Director : ELEKTRO-Am
      Writing application : VirtualDubMod 1.5.10.2 (build 2540/release)
      Copyright : ELEKTRI4KA
   Video #0
      ID : 0
      Format : MPEG-4 Visual
      Format profile : Advanced Simple@L5
      Format settings, BVOP : Yes
      Format settings, QPel : No
      Format settings, GMC : No warppoints
      Format settings, Matrix : Custom
      Codec ID : XVID
      Codec ID/Hint : XviD
      Duration : 49mn 20s
      Bit rate : 1 282 Kbps
      Width : 720 pixels
      Height : 400 pixels
      Display aspect ratio : 16:9
      Frame rate : 25.000 fps
      Color space : YUV
      Chroma subsampling : 4:2:0
      Bit depth : 8 bits
      Scan type : Progressive
      Bits/(Pixel*Frame) : 0.178
      Stream size : 453 MiB (91%)
      Writing library : XviD 1.2.1 (UTC 2008-12-04)
   Audio #1
      ID : 1
      Format : MPEG Audio
      Format version : Version 1
      Format profile : Layer 3
      Codec ID : 55
      Codec ID/Hint : MP3
      Duration : 49mn 20s
      Bit rate mode : Variable
      Bit rate : 110 Kbps
      Nominal bit rate : 128 Kbps
      Channel(s) : 2 channels
      Sampling rate : 48.0 KHz
      Stream size : 38.8 MiB (8%)
      Alignment : Aligned on interleaves
      Interleave, duration : 24 ms (0.60 video frame)
      Interleave, preload duration : 516 ms
      Writing library : LAME3.98r
      Encoding settings : -m s -V 4 -q 2 -lowpass 17 --abr 128
Семпл: http://multi-up.com/756997

picpicpicpicpicpicpicpicpicpicpicpic
Для увеличения картинки щелкните мышкой по превью

Этот торрент недоступен для скачивания без регистрации, однако доступен по публичной magnet-ссылке (источники с публичных трекеров). Перед использованием ссылки прочтите, пожалуйста Пользовательское соглашение, а также как можно дольше оставайтесь на раздаче! Для того, чтобы скачать сам торрент-файл (который видит больше источников), а также для того, чтобы поблагодарить релизера, вам необходимо зарегистрироваться. Если регистрироваться лень - вы можете также попробовать скачать релиз по нашим партнерским ссылкам ниже.

[underverse.su].t19658.torrent
Трекер: Зарегистрирован   [ 06.09.2012 15:13 ]  

Статус: проверено (by Паукан at 06.09.2012 16:11)
Поблагодарили: 1 человек
Тип торрента: публичный - доступные источники с открытых трекеров: 
Размер: 12,1 GB (занимает 2,76 DVDR, для записи нужно 3 болванки DVDR/RW)
 
 
Похожие темы
Форум Тема Автор Торрент Отв. Посл. сооб.
xUSSR сериалы Брак по завещанию-3. Танцы на углях / Серии: 1-9 из 9 (Николай Борц) [2013 г., мелодрама, приключения, SatRip] konopic
14 | 1

1 | 2287

16

05.10.2013 17:44


Яндекс.Метрика powered by Sphinx


В Н И М А Н И Е
Сайт не распространяет и не хранит электронные версии произведений, а лишь бесплатно и без коммерческой выгоды (не требуя взамен платы,
SMS и т.д.) предоставляет доступ к создаваемому пользователями каталогу ссылок на торрент-файлы, которые содержат только списки хеш-сумм.
Убедительная просьба с жалобами обращаться напрямую к пользователю, разместившему торрент файл.

Вверх