Loading...
Error

Дизайн смерти / Sha sheng (Ху Гуань) [2012 г., драма, HDTVRip]

Статистика раздачи
Размер:  1,46 GB   |    Зарегистрирован:  4 года 3 месяца   |    Скачан:  7 раз

Полного источника не было: 3 года 3 месяца

Сидов:  0  |  0 KB/s  ]   Личеров:  0  |  0 KB/s  ]

* - сиды/пиры с внешних источников

   
 
Автор Сообщение

RG NewCinema 

06-Сен-2012 09:52

Дизайн смерти / Sha sheng


Год выпуска: 2012
Жанр: драма
Страна: Китай
Режиссер: Ху Гуань
В ролях: Бо Хуанг, Саймон Ям, Алек Су, Лян Цзин, Цзину Ма, Сунь Ванг, Нань Юй
Сюжет фильма:
Ню Цзеши - чёрное пятно на репутации Деревни Долгожителей. Он ни в грош не ставит ни древние традиции деревни, ни мир и покой её жителей, а закон для него не писан, не читан и не понят. Если какая-то неприятность случилась - будьте уверены, что без Ню Цзеши тут не обошлось. Но постепенно мелкие шалости начали перерастать в нечто большее. И однажды стало ясно: если и можно отмыть это пятно, то только кровью.

  • Мировая премьера: 28 апреля 2012

|
Качество видео: HDTVRip

Продолжительность: 01:47:59
Формат: AVI
Видео: XviD, 720x320, 1701 kbps
Аудио: русский, одноголосый закадровый [den904], MP3 2.0, 224 kbps
Субтитры: хардсаб, английский и китайский

Код:

Format : AVI
Format/Info : Audio Video Interleave
File size : 1.46 GiB
Duration : 1h 47mn
Overall bit rate : 1 935 Kbps
Writing application : VirtualDubMod 1.5.10.2 (build 2540/release)
Writing library : VirtualDubMod build 2540/release

Video
ID : 0
Format : MPEG-4 Visual
Format profile : Advanced Simple@L5
Format settings, BVOP : 1
Format settings, QPel : No
Format settings, GMC : No warppoints
Format settings, Matrix : Custom
Codec ID : XVID
Codec ID/Hint : XviD
Duration : 1h 47mn
Bit rate : 1 702 Kbps
Width : 720 pixels
Height : 320 pixels
Display aspect ratio : 2.25:1
Frame rate : 25.000 fps
Color space : YUV
Chroma subsampling : 4:2:0
Bit depth : 8 bits
Scan type : Progressive
Compression mode : Lossy
Bits/(Pixel*Frame) : 0.295
Stream size : 1.28 GiB (88%)
Writing library : XviD 1.0.2 (UTC 2004-08-29)

Audio
ID : 1
Format : MPEG Audio
Format version : Version 1
Format profile : Layer 3
Mode : Joint stereo
Codec ID : 55
Codec ID/Hint : MP3
Duration : 1h 47mn
Bit rate mode : Constant
Bit rate : 224 Kbps
Channel(s) : 2 channels
Sampling rate : 48.0 KHz
Compression mode : Lossy
Stream size : 173 MiB (12%)
Alignment : Aligned on interleaves
Interleave, duration : 40 ms (1.00 video frame)
Interleave, preload duration : 504 ms
Семпл: http://multi-up.com/756785

picpicpic
Для увеличения картинки щелкните мышкой по превью

Этот торрент недоступен для скачивания без регистрации, однако доступен по публичной magnet-ссылке (источники с публичных трекеров). Перед использованием ссылки прочтите, пожалуйста Пользовательское соглашение, а также как можно дольше оставайтесь на раздаче! Для того, чтобы скачать сам торрент-файл (который видит больше источников), а также для того, чтобы поблагодарить релизера, вам необходимо зарегистрироваться. Если регистрироваться лень - вы можете также попробовать скачать релиз по нашим партнерским ссылкам ниже.

[underverse.su].t19653.torrent
Трекер: Зарегистрирован   [ 06.09.2012 09:52 ]  

Статус: проверено (by Паукан at 06.09.2012 10:01)
Поблагодарили: пока никто не поблагодарил...
Тип торрента: публичный - доступные источники с открытых трекеров: 
Размер: 1,46 GB (занимает 0,33 DVDR, для записи нужно 1 болванка DVDR/RW)
 
 

Яндекс.Метрика powered by Sphinx


В Н И М А Н И Е
Сайт не распространяет и не хранит электронные версии произведений, а лишь бесплатно и без коммерческой выгоды (не требуя взамен платы,
SMS и т.д.) предоставляет доступ к создаваемому пользователями каталогу ссылок на торрент-файлы, которые содержат только списки хеш-сумм.
Убедительная просьба с жалобами обращаться напрямую к пользователю, разместившему торрент файл.

Вверх