Loading...
Error

Плохая карма / Bad Karma (Сури Кришнамма) [2011 г., триллер, DVDRip]

Статистика раздачи
Размер:  1,36 GB   |    Зарегистрирован:  4 года 3 месяца   |    Скачан:  7 раз

Полного источника не было: 3 года 10 месяцев

Сидов:  0  |  0 KB/s  ]   Личеров:  0  |  0 KB/s  ]

* - сиды/пиры с внешних источников

   
 
Автор Сообщение

RG NewCinema 

01-Сен-2012 20:03

Плохая карма / Bad Karma


Год выпуска: 2011
Жанр: триллер
Страна: США , Австралия
Режиссер: Сури Кришнамма
В ролях: Доминик Пурселл, Рэй Лиотта, Энди МакФи, Ванесса Грэй, Брэд МакМюррей, Робин Мур, Jordanna Allen, Кармел Роуз Джентиле, Александра МакТавиш, Аарон Педерсен
Сюжет фильма:
Недавно вышедший из тюрьмы бывший наркоман и преступник налаживает совместную жизнь с девушкой.
Однако он решает отомстить, для чего вынужден снова иметь дела со своей старой бандой.

  • Мировая премьера: 11 сентября 2012

|
Качество видео: DVDRip

Продолжительность: 01:27:23
Формат: AVI
Видео: XviD, 704x288, 1778 kbps
Аудио: русский, двухголосый закадровый [den904 & DeadSno], AC3 5.1, 448 kbps

Код:

General
Complete name : D:\Раздачи\Bad.karma.2011.L2.DVDRip.1400MB.avi
Format : AVI
Format/Info : Audio Video Interleave
File size : 1.36 GiB
Duration : 1h 27mn
Overall bit rate : 2 236 Kbps
Writing application : VirtualDubMod 1.5.10.2 (build 2540/release)
Writing library : VirtualDubMod build 2540/release

Video
ID : 0
Format : MPEG-4 Visual
Format profile : Advanced Simple@L5
Format settings, BVOP : Yes
Format settings, QPel : No
Format settings, GMC : No warppoints
Format settings, Matrix : Default (MPEG)
Muxing mode : Packed bitstream
Codec ID : XVID
Codec ID/Hint : XviD
Duration : 1h 27mn
Bit rate : 1 779 Kbps
Width : 704 pixels
Height : 288 pixels
Display aspect ratio : 2.40:1
Frame rate : 23.976 fps
Resolution : 8 bits
Colorimetry : 4:2:0
Scan type : Progressive
Bits/(Pixel*Frame) : 0.366
Stream size : 1.09 GiB (80%)
Writing library : XviD 1.2.0.dev47 (UTC 2006-11-01)

Audio
ID : 1
Format : AC-3
Format/Info : Audio Coding 3
Codec ID : 2000
Duration : 1h 27mn
Bit rate mode : Constant
Bit rate : 448 Kbps
Channel(s) : 6 channels
Channel positions : Front: L C R, Side: L R, LFE
Sampling rate : 48.0 KHz
Stream size : 280 MiB (20%)
Alignment : Split accross interleaves
Interleave, duration : 42 ms (1.00 video frame)
Interleave, preload duration : 500 ms
Семпл: http://multi-up.com/754357

picpicpic
Для увеличения картинки щелкните мышкой по превью

Этот торрент недоступен для скачивания без регистрации, однако доступен по публичной magnet-ссылке (источники с публичных трекеров). Перед использованием ссылки прочтите, пожалуйста Пользовательское соглашение, а также как можно дольше оставайтесь на раздаче! Для того, чтобы скачать сам торрент-файл (который видит больше источников), а также для того, чтобы поблагодарить релизера, вам необходимо зарегистрироваться. Если регистрироваться лень - вы можете также попробовать скачать релиз по нашим партнерским ссылкам ниже.

[underverse.su].t19574.torrent
Трекер: Зарегистрирован   [ 01.09.2012 20:03 ]  

Статус: проверено (by Паукан at 02.09.2012 12:26)
Поблагодарили: пока никто не поблагодарил...
Тип торрента: публичный - доступные источники с открытых трекеров: 
Размер: 1,36 GB (занимает 0,31 DVDR, для записи нужно 1 болванка DVDR/RW)
 
 

Яндекс.Метрика powered by Sphinx


В Н И М А Н И Е
Сайт не распространяет и не хранит электронные версии произведений, а лишь бесплатно и без коммерческой выгоды (не требуя взамен платы,
SMS и т.д.) предоставляет доступ к создаваемому пользователями каталогу ссылок на торрент-файлы, которые содержат только списки хеш-сумм.
Убедительная просьба с жалобами обращаться напрямую к пользователю, разместившему торрент файл.

Вверх