Loading...
Error

Чужое лицо [1-8 серий из 8] (Сергей Басин) [2012г, Детектив, Мелодрама, SATRip]

Статистика раздачи
Размер:  4,02 GB   |    Зарегистрирован:  4 года 3 месяца   |    Скачан:  11 раз

Полного источника не было: 2 года

Сидов:  0  |  0 KB/s  ]   Личеров:  0  |  0 KB/s  ]

* - сиды/пиры с внешних источников

   
 
Автор Сообщение

nemos Пол:Муж

31-Авг-2012 19:07

Чужое лицо [1-8 серий из 8]


Год выпуска: 2012
Жанр: драма, мелодрама
Страна: Россия
Режиссер: Сергей Басин
В ролях: Александр Домогаров, Дана Агишева, Олег Штефанко, Александр Пашутин, Александр Рапопорт, Татьяна КолгановаКатерина Шпица,
Сюжет фильма:
Интрига этой истории закручена вокруг двух мужчин, очень разных по характеру, профессии, и по своей сути, но очень похожих внешне: «русского американца» эмигранта-стоматолога Романа Ставинского и блестящего офицера генштаба, полковника Сергея Юрышева. Судьба, в лице двух монстров КГБ и ЦРУ, сводит их вместе, и меняет местами. У каждого из них есть страстное желание оказаться по ту сторону океана. Станут ли они счастливее поменявшись местами? Получится ли у советских и американских разведчиков добиться желаемого? И как любовь, внезапно ворвавшаяся в тонкую и рискованную игру, перемешает все карты? История этой любви поставит в тупик и американского президента и председателя КГБ СССР


Качество видео: SatRip

Продолжительность: 00:42:25 серия
Формат: AVI
Видео: DivX, 704x384, 1500kbps
Аудио: русский, MP3 2.0, 128 kbps

Код:

E:\СКАЧКИ\С underverse\Chuzhoe.Lico.2012.SATRip\Chuzhoe.Lico.06.2012.SATRip.avi
   General
      Complete name : E:\СКАЧКИ\С underverse\Chuzhoe.Lico.2012.SATRip\Chuzhoe.Lico.06.2012.SATRip.avi
      Format : AVI
      Format/Info : Audio Video Interleave
      File size : 493 MiB
      Duration : 42mn 3s
      Overall bit rate : 1 638 Kbps
      Writing application : VirtualDubModRus 1.5.10.1 (build 2439/release)
      Writing library : VirtualDubMod build 2439/release
   Video #0
      ID : 0
      Format : MPEG-4 Visual
      Format settings, BVOP : Yes
      Format settings, QPel : No
      Format settings, GMC : No warppoints
      Format settings, Matrix : Default (H.263)
      Muxing mode : Packed bitstream
      Codec ID : DX50
      Codec ID/Hint : DivX 5
      Duration : 42mn 3s
      Bit rate : 1 500 Kbps
      Width : 704 pixels
      Height : 384 pixels
      Display aspect ratio : 16:9
      Frame rate : 25.000 fps
      Color space : YUV
      Chroma subsampling : 4:2:0
      Bit depth : 8 bits
      Scan type : Progressive
      Bits/(Pixel*Frame) : 0.222
      Stream size : 451 MiB (92%)
      Writing library : DivX 6.8.5 (UTC 2009-08-20)
   Audio #1
      ID : 1
      Format : MPEG Audio
      Format version : Version 1
      Format profile : Layer 2
      Codec ID : 50
      Duration : 42mn 3s
      Bit rate mode : Constant
      Bit rate : 128 Kbps
      Channel(s) : 2 channels
      Sampling rate : 48.0 KHz
      Stream size : 38.5 MiB (8%)
      Alignment : Aligned on interleaves
      Interleave, duration : 40 ms (1.00 video frame)
      Interleave, preload duration : 504 ms
Семпл: http://multi-up.com/754364

picpicpicpicpicpic
Для увеличения картинки щелкните мышкой по превью

Этот торрент недоступен для скачивания без регистрации, однако доступен по публичной magnet-ссылке (источники с публичных трекеров). Перед использованием ссылки прочтите, пожалуйста Пользовательское соглашение, а также как можно дольше оставайтесь на раздаче! Для того, чтобы скачать сам торрент-файл (который видит больше источников), а также для того, чтобы поблагодарить релизера, вам необходимо зарегистрироваться. Если регистрироваться лень - вы можете также попробовать скачать релиз по нашим партнерским ссылкам ниже.

[underverse.su].t19553.torrent
Трекер: Зарегистрирован   [ 31.08.2012 19:07 ]  

Статус: проверено (by garry at 31.08.2012 21:06)
Поблагодарили: 1 человек
Тип торрента: публичный - доступные источники с открытых трекеров: 
Размер: 4,02 GB (занимает 0,92 DVDR, для записи нужно 1 болванка DVDR/RW)
 
 

Яндекс.Метрика powered by Sphinx


В Н И М А Н И Е
Сайт не распространяет и не хранит электронные версии произведений, а лишь бесплатно и без коммерческой выгоды (не требуя взамен платы,
SMS и т.д.) предоставляет доступ к создаваемому пользователями каталогу ссылок на торрент-файлы, которые содержат только списки хеш-сумм.
Убедительная просьба с жалобами обращаться напрямую к пользователю, разместившему торрент файл.

Вверх