Loading...
Error

Однолюбы [1-12 серий из 12] (Александр (Алеко) Цабадзе) [2012г, Мелодрама. SATRip]

Статистика раздачи
Размер:  8,03 GB   |    Зарегистрирован:  4 года 3 месяца   |    Скачан:  7 раз

Полного источника не было: 2 года

Сидов:  0  |  0 KB/s  ]   Личеров:  0  |  0 KB/s  ]

* - сиды/пиры с внешних источников

   
 
Автор Сообщение

nemos Пол:Муж

31-Авг-2012 17:59


Год выпуска: 2012
Жанр: мелодрама
Страна: Россия
Режиссер: Александр (Алеко) Цабадзе
В ролях: Иван Стебунов, Александр Робак, Татьяна Черкасова, Фёдор Лавров, Александра Урсуляк, Полина Стрельникова, Максим Лагашкин, Михаил Евланов, Галина Петрова, Александр Новин, Николай Качура, Анастасия Боброва, Павел Южаков-Харланчук, Влад Денякин, Полина Стефанович, Иван Щетко
Сюжет фильма:
Если бы кто-то в 1980 году сказал Яхонтовым и Удальцовым, что очень скоро их семьи свяжет сначала непримиримая вражда, а потом кровное родство, замешанное, правда, все на той же ненависти, они бы не поверили. К тому же той осенью, Яхонтовым и Удальцовым было не до глупых прогнозов на будущее. И у тех, и у других было полно счастливых хлопот - счастливые и взволнованные папаши забирали из роддома своих жен, крепко прижимающих к груди крикливые свертки. У Яхонтовых сверток был с розовым бантом – и дочку решено было назвать Машенькой, а голубое одеяльце, в котором сопел щекастый новорожденный малыш, на весь мир сигнализировало о том, что в семье Удальцовых появился сын – Ванечка. Маша и Ванечка много спали, с удовольствием ели, орали и беспрестанно пачкали пеленки, не зная, что невидимые нити судьбы уже прочно связали их жизни.
Их жизни – и жизни их пока еще не связанных друг с другом семей…


Качество видео: SatRip

Продолжительность: 00:50:00 серия
Формат: AVI
Видео: XviD, 720х384, 1 577 kbps
Аудио: русский, MP3 2.0, 128 kbps

Код:

E:\СКАЧКИ\С underverse\Odnolubi.2012.SATRip\Odnolubi.04.2012.SATRip.avi
   General
      Complete name : E:\СКАЧКИ\С underverse\Odnolubi.2012.SATRip\Odnolubi.04.2012.SATRip.avi
      Format : AVI
      Format/Info : Audio Video Interleave
      File size : 636 MiB
      Duration : 51mn 49s
      Overall bit rate : 1 715 Kbps
      Writing application : VirtualDubModRus 1.5.10.2 (build 2542/release)
      Writing library : VirtualDubMod build 2542/release
   Video #0
      ID : 0
      Format : MPEG-4 Visual
      Format profile : Simple@L1
      Format settings, BVOP : No
      Format settings, QPel : No
      Format settings, GMC : No warppoints
      Format settings, Matrix : Default (H.263)
      Codec ID : DX50
      Codec ID/Hint : DivX 5
      Duration : 51mn 49s
      Bit rate : 1 577 Kbps
      Width : 720 pixels
      Height : 384 pixels
      Display aspect ratio : 1.875
      Frame rate : 25.000 fps
      Color space : YUV
      Chroma subsampling : 4:2:0
      Bit depth : 8 bits
      Scan type : Progressive
      Bits/(Pixel*Frame) : 0.228
      Stream size : 585 MiB (92%)
      Writing library : Lavc52.58.0
   Audio #1
      ID : 1
      Format : MPEG Audio
      Format version : Version 1
      Format profile : Layer 3
      Mode : Joint stereo
      Mode extension : MS Stereo
      Codec ID : 55
      Codec ID/Hint : MP3
      Duration : 51mn 49s
      Bit rate mode : Constant
      Bit rate : 128 Kbps
      Channel(s) : 2 channels
      Sampling rate : 48.0 KHz
      Stream size : 47.5 MiB (7%)
      Alignment : Split accross interleaves
      Interleave, duration : 40 ms (1.00 video frame)
      Interleave, preload duration : 500 ms
Семпл: http://multi-up.com/754324

picpicpicpicpicpicpicpic
Для увеличения картинки щелкните мышкой по превью

Этот торрент недоступен для скачивания без регистрации, однако доступен по публичной magnet-ссылке (источники с публичных трекеров). Перед использованием ссылки прочтите, пожалуйста Пользовательское соглашение, а также как можно дольше оставайтесь на раздаче! Для того, чтобы скачать сам торрент-файл (который видит больше источников), а также для того, чтобы поблагодарить релизера, вам необходимо зарегистрироваться. Если регистрироваться лень - вы можете также попробовать скачать релиз по нашим партнерским ссылкам ниже.

[underverse.su].t19552.torrent
Трекер: Зарегистрирован   [ 31.08.2012 17:59 ]  

Статус: проверено (by garry at 31.08.2012 21:06)
Поблагодарили: пока никто не поблагодарил...
Тип торрента: публичный - доступные источники с открытых трекеров: 
Размер: 8,03 GB (занимает 1,83 DVDR, для записи нужно 2 болванки DVDR/RW)
 
 


Последний раз редактировалось: nemos (31.08.2012 19:12), всего редактировалось 1 раз

Яндекс.Метрика powered by Sphinx


В Н И М А Н И Е
Сайт не распространяет и не хранит электронные версии произведений, а лишь бесплатно и без коммерческой выгоды (не требуя взамен платы,
SMS и т.д.) предоставляет доступ к создаваемому пользователями каталогу ссылок на торрент-файлы, которые содержат только списки хеш-сумм.
Убедительная просьба с жалобами обращаться напрямую к пользователю, разместившему торрент файл.

Вверх