Loading...
Error

Куда он денется! (Георгий Юнгвальд-Хилькевич) [1981 г., комедия, TVRip]

Статистика раздачи
Размер:  1,36 GB   |    Зарегистрирован:  4 года 3 месяца   |    Скачан:  15 раз

Полного источника не было: 9 месяцев

Сидов:  0  |  0 KB/s  ]   Личеров:  0  |  0 KB/s  ]

* - сиды/пиры с внешних источников

   
 
Автор Сообщение

amex Пол:Муж

30-Авг-2012 14:09

Куда он денется!


Год выпуска: 1981
Жанр: комедия
Страна: СССР
Режиссер: Георгий Юнгвальд-Хилькевич
В ролях: Нина Русланова, Полина Кутепова, Ксения Кутепова, Баадур Цуладзе, Михаил Боярский, Галина Беляева, Валентин Смирнитский, Александр Игнатуша, Сергей Иванов, Татьяна Жукова
Сюжет фильма:
Молодежная полеводческая бригада украинского колхоза приезжает в Москву для участия во Всесоюзном конкурсе эстрадных коллективов. Ребятам очень хочется завоевать первый приз. Озабочены они и другим.

На ВДНХ представлен экспериментальный образец трактора, весьма необходимый в их колхозе. Но как добиться, чтобы этот трактор прошел полевые испытания именно у них?

  • Мировая премьера: 1981
  • Российская премьера: 1981


Качество видео: TVRip

Продолжительность: 01:27:07
Формат: avi
Видео: XviD, 672x352, 1975 kbps
Аудио: русский, , AC3 2.0, 256 kbps

Код:

General
Complete name                    : D:\фильмы\боярский\Куда он денется.avi
Format                           : AVI
Format/Info                      : Audio Video Interleave
File size                        : 1.36 GiB
Duration                         : 1h 27mn
Overall bit rate                 : 2 241 Kbps
Writing application              : VirtualDubMod 1.5.10.2 (build 2540/release)
Writing library                  : VirtualDubMod build 2540/release

Video
ID                               : 0
Format                           : MPEG-4 Visual
Format profile                   : Streaming Video@L1
Format settings, BVOP            : Yes
Format settings, QPel            : No
Format settings, GMC             : No warppoints
Format settings, Matrix          : Default (H.263)
Muxing mode                      : Packed bitstream
Codec ID                         : XVID
Codec ID/Hint                    : XviD
Duration                         : 1h 27mn
Bit rate                         : 1 976 Kbps
Width                            : 672 pixels
Height                           : 352 pixels
Display aspect ratio             : 1.909
Frame rate                       : 25.000 fps
Resolution                       : 24 bits
Colorimetry                      : 4:2:0
Scan type                        : Progressive
Bits/(Pixel*Frame)               : 0.334
Stream size                      : 1.20 GiB (88%)
Writing library                  : XviD 1.0.3 (UTC 2004-12-20)

Audio
ID                               : 1
Format                           : AC-3
Format/Info                      : Audio Coding 3
Codec ID                         : 2000
Duration                         : 1h 27mn
Bit rate mode                    : Constant
Bit rate                         : 256 Kbps
Channel(s)                       : 2 channels
Channel positions                : L R
Sampling rate                    : 48.0 KHz
Stream size                      : 160 MiB (11%)
Alignment                        : Split accross interleaves
Interleave, duration             : 40 ms (1.00 video frame)
Interleave, preload duration     : 500 ms

picpicpic
Для увеличения картинки щелкните мышкой по превью

Этот торрент недоступен для скачивания без регистрации, однако доступен по публичной magnet-ссылке (источники с публичных трекеров). Перед использованием ссылки прочтите, пожалуйста Пользовательское соглашение, а также как можно дольше оставайтесь на раздаче! Для того, чтобы скачать сам торрент-файл (который видит больше источников), а также для того, чтобы поблагодарить релизера, вам необходимо зарегистрироваться. Если регистрироваться лень - вы можете также попробовать скачать релиз по нашим партнерским ссылкам ниже.

[underverse.su].t19529.torrent
Трекер: Зарегистрирован   [ 30.08.2012 14:09 ]  

Статус: проверено (by garry at 30.08.2012 15:21)
Поблагодарили: пока никто не поблагодарил...
Тип торрента: публичный - доступные источники с открытых трекеров: 
Размер: 1,36 GB (занимает 0,31 DVDR, для записи нужно 1 болванка DVDR/RW)
 
 

Яндекс.Метрика powered by Sphinx


В Н И М А Н И Е
Сайт не распространяет и не хранит электронные версии произведений, а лишь бесплатно и без коммерческой выгоды (не требуя взамен платы,
SMS и т.д.) предоставляет доступ к создаваемому пользователями каталогу ссылок на торрент-файлы, которые содержат только списки хеш-сумм.
Убедительная просьба с жалобами обращаться напрямую к пользователю, разместившему торрент файл.

Вверх