Loading...
Error

13 убийц [Расширенная версия] / 13 Assassins [Uncut] / Jusan-nin no shikaku (Такаси Миике) [2010 г., боевик, драма, приключения, BDRip]

Статистика раздачи
Размер:  2,18 GB   |    Зарегистрирован:  4 года 3 месяца   |    Скачан:  15 раз

Полного источника не было: 6 месяцев

Сидов:  0  |  0 KB/s  ]   Личеров:  0  |  0 KB/s  ]

* - сиды/пиры с внешних источников

   
 
Автор Сообщение

garry Пол:Муж

29-Авг-2012 15:12

13 убийц / 13 Assassins / Jusan-nin no shikaku


Год выпуска: 2010
Жанр: боевик, драма, приключения
Страна: Япония , Великобритания
Режиссер: Такаси Миике
В ролях: Кодзи Якусё, Такаюки Ямада, Юсуке Исейа, Горо Инагаки, Масатика Итимура, Микидзиро Хира, Хироки Мацуката, Цуеши Ихара, Арата Фурута, Икки Савамура
Сюжет фильма:
Действие ленты помещено в эпоху сегунов, а расскажет картина о тайной миссии неких 13 убийц уничтожить злого правителя, выполнить которую оказывается не так-то просто, поскольку численность телохранителей этого злодея в десять раз превосходит количество людей, покушающихся на его жизнь.

  • Мировая премьера: 9 сентября 2010
  • Российская премьера: 6 октября 2011, «Русский репортаж»

|
Качество видео: BDRip

Продолжительность: 02:21:51
Формат: avi
Видео: XviD, 720x304, 1741 kbps
Аудио: русский, двухголосый закадровый [профессиональный, BBC Saint-Petersburg], AC3 5.1, 448 kbps

Код:

General
Complete name                    : D:\Video\Movies\13.Ubijc.2010.RUS.BDRip.XviD.AC3.-Shevon.avi
Format                           : AVI
Format/Info                      : Audio Video Interleave
Format profile                   : OpenDML
File size                        : 2.18 GiB
Duration                         : 2h 21mn
Overall bit rate                 : 2 202 Kbps
Movie name                       : 13 убийц / 13 Assassins / Ju^san-nin no shikaku (2010)
Director                         : Shevon (BDRemux)
Writing application              : VirtualDubMod 1.5.10.2 (build 2540/release)

Video
ID                               : 0
Format                           : MPEG-4 Visual
Format profile                   : Streaming Video@L1
Format settings, BVOP            : Yes
Format settings, QPel            : No
Format settings, GMC             : No warppoints
Format settings, Matrix          : Custom
Codec ID                         : XVID
Codec ID/Hint                    : XviD
Duration                         : 2h 21mn
Bit rate                         : 1 742 Kbps
Width                            : 720 pixels
Height                           : 304 pixels
Display aspect ratio             : 2.35
Frame rate                       : 23.976 fps
Resolution                       : 24 bits
Colorimetry                      : 4:2:0
Scan type                        : Progressive
Bits/(Pixel*Frame)               : 0.332
Stream size                      : 1.73 GiB (79%)
Writing library                  : XviD 64

Audio
ID                               : 1
Format                           : AC-3
Format/Info                      : Audio Coding 3
Codec ID                         : 2000
Duration                         : 2h 21mn
Bit rate mode                    : Constant
Bit rate                         : 448 Kbps
Channel(s)                       : 6 channels
Channel positions                : Front: L C R, Surround: L R, LFE
Sampling rate                    : 48.0 KHz
Stream size                      : 455 MiB (20%)
Alignment                        : Split accross interleaves
Interleave, duration             : 42 ms (1.00 video frame)
Interleave, preload duration     : 500 ms

Семпл: http://multi-up.com/598120

picpicpic
Для увеличения картинки щелкните мышкой по превью

Этот торрент недоступен для скачивания без регистрации, однако доступен по публичной magnet-ссылке (источники с публичных трекеров). Перед использованием ссылки прочтите, пожалуйста Пользовательское соглашение, а также как можно дольше оставайтесь на раздаче! Для того, чтобы скачать сам торрент-файл (который видит больше источников), а также для того, чтобы поблагодарить релизера, вам необходимо зарегистрироваться. Если регистрироваться лень - вы можете также попробовать скачать релиз по нашим партнерским ссылкам ниже.

[underverse.su].t19505.torrent
Трекер: Зарегистрирован   [ 29.08.2012 15:12 ]  

Статус: проверено (by garry at 29.08.2012 15:13)
Поблагодарили: 1 человек
Тип торрента: публичный - доступные источники с открытых трекеров: 
Размер: 2,18 GB (занимает 1/2 DVDR, для записи нужно 1 болванка DVDR/RW)
 
 

Яндекс.Метрика powered by Sphinx


В Н И М А Н И Е
Сайт не распространяет и не хранит электронные версии произведений, а лишь бесплатно и без коммерческой выгоды (не требуя взамен платы,
SMS и т.д.) предоставляет доступ к создаваемому пользователями каталогу ссылок на торрент-файлы, которые содержат только списки хеш-сумм.
Убедительная просьба с жалобами обращаться напрямую к пользователю, разместившему торрент файл.

Вверх