Loading...
Error

Диктатор / The Dictator (Ларри Чарльз) [2012 г., комедия, HDRip] [театральная версия] (Rus, Eng) HQ Underverse

Статистика раздачи
Размер:  1,45 GB   |    Зарегистрирован:  4 года 3 месяца   |    Скачан:  46 раз

Полного источника не было: 2 дня 14 часов

Сидов:  0  |  0 KB/s  ]   Личеров:  0  |  0 KB/s  ]

* - сиды/пиры с внешних источников

   
 
Автор Сообщение

HQ Underverse 

28-Авг-2012 11:11

Диктатор / The Dictator


Год выпуска: 2012
Жанр: комедия
Страна: США
Режиссер: Ларри Чарльз
В ролях: Саша Барон Коэн, Анна Фэрис, Бен Кингсли, Джейсон Манцукас, Саид Бадрия, Мишель Берг, Роки Ситрон, Лиам Кампора, Аасиф Мандви, Ризван Манжи
Сюжет фильма:
Героическая история диктатора, который рискует своей жизнью, чтобы ни в коем случае не допустить демократию в свою столь любовно угнетаемую страну.

  • Мировая премьера: 16 мая 2012
  • Российская премьера: 17 мая 2012, «Централ Партнершип»

|
Качество видео: HDRip

Продолжительность: 01:23:17
Формат: avi
Видео: XviD, 720x304, 2034 kbps
Аудио #1: русский, дублированный [лицензия], AC3 5.1, 448 kbps
Аудио #2: английский, оригинал, AC3 5.1, 448 kbps (отдельным файлом: здесь)
Субтитры: в русской театральной версии отсутствуют (будут добавлены после выхода сабов от voronine по вашим просьбам)

Код:

General
Complete name                    : Z:\Видео\HQ\Диктатор\Dictator.2012.HDRip.XviD.AC3.Rus.D.HQ.Underverse.avi
Format                           : AVI
Format/Info                      : Audio Video Interleave
File size                        : 1.45 GiB
Duration                         : 1h 23mn
Overall bit rate                 : 2 492 Kbps
Writing application              : VirtualDubMod 1.5.10.2 (build 2542/release)
Writing library                  : VirtualDubMod build 2542/release

Video
ID                               : 0
Format                           : MPEG-4 Visual
Format profile                   : Streaming Video@L1
Format settings, BVOP            : Yes
Format settings, QPel            : No
Format settings, GMC             : No warppoints
Format settings, Matrix          : Custom
Muxing mode                      : Packed bitstream
Codec ID                         : XVID
Codec ID/Hint                    : XviD
Duration                         : 1h 23mn
Bit rate                         : 2 035 Kbps
Width                            : 720 pixels
Height                           : 304 pixels
Display aspect ratio             : 2.35
Frame rate                       : 23.976 fps
Resolution                       : 24 bits
Colorimetry                      : 4:2:0
Scan type                        : Progressive
Bits/(Pixel*Frame)               : 0.388
Stream size                      : 1.18 GiB (82%)
Writing library                  : XviD 64

Audio
ID                               : 1
Format                           : AC-3
Format/Info                      : Audio Coding 3
Codec ID                         : 2000
Duration                         : 1h 23mn
Bit rate mode                    : Constant
Bit rate                         : 448 Kbps
Channel(s)                       : 6 channels
Channel positions                : Front: L C R, Surround: L R, LFE
Sampling rate                    : 48.0 KHz
Video delay                      : 2ms
Stream size                      : 267 MiB (18%)
Alignment                        : Split accross interleaves
Interleave, duration             : 42 ms (1.00 video frame)
Interleave, preload duration     : 500 ms

General
Complete name                    : Z:\Видео\HQ\Диктатор\Dictator.2012.HDRip.XviD.AC3.Rus.D.HQ.Underverse.ENG.ac3
Format                           : AC-3
Format/Info                      : Audio Coding 3
File size                        : 267 MiB
Duration                         : 1h 23mn
Overall bit rate                 : 448 Kbps

Audio
Format                           : AC-3
Format/Info                      : Audio Coding 3
Duration                         : 1h 23mn
Bit rate mode                    : Constant
Bit rate                         : 448 Kbps
Channel(s)                       : 6 channels
Channel positions                : Front: L C R, Surround: L R, LFE
Sampling rate                    : 48.0 KHz
Stream size                      : 267 MiB (100%)

Семпл: http://multi-up.com/752731

Релиз группы:

picpicpic
Для увеличения картинки щелкните мышкой по превью

Этот торрент недоступен для скачивания без регистрации, однако доступен по публичной magnet-ссылке (источники с публичных трекеров). Перед использованием ссылки прочтите, пожалуйста Пользовательское соглашение, а также как можно дольше оставайтесь на раздаче! Для того, чтобы скачать сам торрент-файл (который видит больше источников), а также для того, чтобы поблагодарить релизера, вам необходимо зарегистрироваться. Если регистрироваться лень - вы можете также попробовать скачать релиз по нашим партнерским ссылкам ниже.

[underverse.su].t19486.torrent
Трекер: Зарегистрирован   [ 28.08.2012 11:11 ]  

Статус: проверено (by garry at 28.08.2012 12:10)
Поблагодарили: 2 человека
Тип торрента: публичный - доступные источники с открытых трекеров: 
Размер: 1,45 GB (занимает 1/3 DVDR, для записи нужно 1 болванка DVDR/RW)
 
 
Похожие темы
Форум Тема Автор Торрент Отв. Посл. сооб.
Зарубежное кино [DVDRip, Low-Res HDRip, и т.д.] Диктатор / The Dictator (Ларри Чарльз) [2012 г., комедия, HDRip] [Театральная версия] [лицензия] 90ytr90
4 | 0

5 | 1106

38

27.08.2012 09:16

Зарубежное кино [DVDRip, Low-Res HDRip, и т.д.] Диктатор / The Dictator (Ларри Чарльз / Larry Charles) [2012 г., комедия, BDRip] [Unrated Cut] 2xAVO + Original (Eng) 90ytr90
47 | 0

0 | 344

6

27.11.2014 18:33

maddd Пол:Муж

28-Авг-2012 14:29

Полный Алладин :D

ForceUser 

12-Сен-2012 19:30

"Кэти Перри позволила С'Алладинить ей на лицо..." :lol:

Яндекс.Метрика powered by Sphinx


В Н И М А Н И Е
Сайт не распространяет и не хранит электронные версии произведений, а лишь бесплатно и без коммерческой выгоды (не требуя взамен платы,
SMS и т.д.) предоставляет доступ к создаваемому пользователями каталогу ссылок на торрент-файлы, которые содержат только списки хеш-сумм.
Убедительная просьба с жалобами обращаться напрямую к пользователю, разместившему торрент файл.

Вверх