Loading...
Error

Королевская битва [Режиссерская версия] / Batoru rowaiaru [Director's Cut] (Киндзи Фукасаку) [2000 г., фантастика, боевик, триллер, BDRip-AVC]

Статистика раздачи
Размер:  3,67 GB   |    Зарегистрирован:  4 года 3 месяца   |    Скачан:  20 раз

Полного источника не было: 1 день 18 часов

Сидов:  0  |  0 KB/s  ]   Личеров:  0  |  0 KB/s  ]

* - сиды/пиры с внешних источников

   
 
Автор Сообщение

garry Пол:Муж

27-Авг-2012 16:34

Королевская битва / Batoru rowaiaru


Год выпуска: 2000
Жанр: фантастика, боевик, триллер
Страна: Япония
Режиссер: Киндзи Фукасаку
В ролях: Такеши Китано, Татсуя Фудживара, Аки Маэда, Юко Миямура, Таро Ямамото, Ко Шибасаки, Чиаки Курияма, Соускэ Такаока, Такаши Цукамото, Юкихиро Котани
Сюжет фильма:
Такого еще не было, но будет! Очень скоро! Родители лишатся работы, а дети выйдя из под контроля, учинят террор и массовый бойкот взрослым. Ответная мера: «Королевская битва» — санкционированная правительством жестокая игра, в которой неуправляемых школьников заставят участвовать под дулами армейских автоматов.

На необитаемом острове 42 подростка будут 3 дня безжалостно уничтожать друг друга, чтобы победить. Только одному игроку разрешено вернуться на большую землю живым. Невозмутимый распорядитель зловещей игры — школьный учитель Китано. Свое имя дал герою исполнитель этой роли всемирно известный культовый актер и режиссер Такеши Китано. Кровь льется рекой, но учитель Китано гарантирует не только соблюдение условий игры, но и ее условность.

Юные герои гибнут, точь-в-точь как в компьютерной «стрелялке». Вот только мораль фильма не виртуальная. Из безумного электронного будущего она обращена в сегодняшний день.
|
Качество видео: BDRip-AVC

Продолжительность: 02:01:56
Формат: mkv
Видео: x264, 1152x648, 2874 kbps
Аудио #1: русский, дублированный [лицензия] + Гаврилов на расширенные места, AC3 5.1, 448 kbps
Аудио #2: русский, одноголосый закадровый [Гаврилов], AC3 5.1, 448 kbps
Аудио #3: японский, оригинал, AC3 5.1, 448 kbps
Субтитры #1: вшитые отключаемые, S_TEXT/UTF8, русский
Субтитры #2: вшитые отключаемые, S_TEXT/UTF8, английский

Код:

General
Complete name                    : D:\Video\Movies\Battle Royale (2000) BDRip.mkv
Format                           : Matroska
File size                        : 3.67 GiB
Duration                         : 2h 1mn
Overall bit rate                 : 4 304 Kbps
Movie name                       : Battle Royale (2000) BDRip
Encoded date                     : UTC 2012-05-11 15:58:42
Writing application              : mkvmerge v5.5.0 ('Healer') built on Apr  6 2012 21:43:24
Writing library                  : libebml v1.2.3 + libmatroska v1.3.0
Cover                            : Yes

Video
ID                               : 1
Format                           : AVC
Format/Info                      : Advanced Video Codec
Format profile                   : High@L4.0
Format settings, CABAC           : Yes
Format settings, ReFrames        : 10 frames
Muxing mode                      : Container profile=Unknown@4.0
Codec ID                         : V_MPEG4/ISO/AVC
Duration                         : 2h 1mn
Bit rate                         : 2 875 Kbps
Width                            : 1 152 pixels
Height                           : 648 pixels
Display aspect ratio             : 16/9
Frame rate                       : 23.976 fps
Resolution                       : 24 bits
Colorimetry                      : 4:2:0
Scan type                        : Progressive
Bits/(Pixel*Frame)               : 0.161
Stream size                      : 2.45 GiB (67%)
Writing library                  : x264 core 124 r2197kMod 69a0443
Encoding settings                : cabac=1 / ref=10 / deblock=1:-3:-2 / analyse=0x3:0x133 / me=umh / subme=11 / psy=1 / fade_compensate=0.00 / psy_rd=1.00:0.05 / mixed_ref=1 / me_range=32 / chroma_me=1 / trellis=2 / 8x8dct=1 / cqm=0 / deadzone=21,11 / fast_pskip=0 / chroma_qp_offset=-3 / threads=6 / sliced_threads=0 / nr=0 / decimate=1 / interlaced=0 / bluray_compat=0 / constrained_intra=0 / bframes=14 / b_pyramid=2 / b_adapt=2 / b_bias=0 / direct=1 / weightb=1 / open_gop=0 / weightp=2 / keyint=250 / keyint_min=23 / scenecut=40 / intra_refresh=0 / rc=crf / mbtree=0 / crf=19.4500 / qcomp=0.65 / qpmin=0 / qpmax=69 / qpstep=4 / ip_ratio=1.40 / pb_ratio=1.20 / aq=3:0.90

Audio #1
ID                               : 2
Format                           : AC-3
Format/Info                      : Audio Coding 3
Codec ID                         : A_AC3
Duration                         : 2h 1mn
Bit rate mode                    : Constant
Bit rate                         : 448 Kbps
Channel(s)                       : 6 channels
Channel positions                : Front: L C R, Surround: L R, LFE
Sampling rate                    : 48.0 KHz
Stream size                      : 391 MiB (10%)
Title                            : Dub + AVO
Language                         : Russian

Audio #2
ID                               : 3
Format                           : AC-3
Format/Info                      : Audio Coding 3
Codec ID                         : A_AC3
Duration                         : 2h 1mn
Bit rate mode                    : Constant
Bit rate                         : 448 Kbps
Channel(s)                       : 6 channels
Channel positions                : Front: L C R, Surround: L R, LFE
Sampling rate                    : 48.0 KHz
Stream size                      : 391 MiB (10%)
Title                            : AVO (Gavrilov)
Language                         : Russian

Audio #3
ID                               : 4
Format                           : AC-3
Format/Info                      : Audio Coding 3
Codec ID                         : A_AC3
Duration                         : 2h 1mn
Bit rate mode                    : Constant
Bit rate                         : 448 Kbps
Channel(s)                       : 6 channels
Channel positions                : Front: L C R, Surround: L R, LFE
Sampling rate                    : 48.0 KHz
Stream size                      : 391 MiB (10%)
Title                            : Original
Language                         : Japanese

Text #1
ID                               : 5
Format                           : UTF-8
Codec ID                         : S_TEXT/UTF8
Codec ID/Info                    : UTF-8 Plain Text
Language                         : Russian

Text #2
ID                               : 6
Format                           : UTF-8
Codec ID                         : S_TEXT/UTF8
Codec ID/Info                    : UTF-8 Plain Text

Menu
00:00:00.000                     : en:Regular Guy
00:08:47.109                     : en:Be Honest
00:23:56.268                     : en:Awesome
00:34:18.681                     : en:Time to Engage
00:44:41.178                     : en:Pop Quiz
00:57:35.410                     : en:Back
01:08:37.363                     : en:Here Kitty
01:19:25.761                     : en:Kick-Ass
01:28:07.156                     : en:Passing a Message
01:35:31.600                     : en:Have Potential
01:43:18.192                     : en:Daddy and Marcus
01:49:47.872                     : en:Red Mist

picpicpic
Для увеличения картинки щелкните мышкой по превью

Этот торрент недоступен для скачивания без регистрации, однако доступен по публичной magnet-ссылке (источники с публичных трекеров). Перед использованием ссылки прочтите, пожалуйста Пользовательское соглашение, а также как можно дольше оставайтесь на раздаче! Для того, чтобы скачать сам торрент-файл (который видит больше источников), а также для того, чтобы поблагодарить релизера, вам необходимо зарегистрироваться. Если регистрироваться лень - вы можете также попробовать скачать релиз по нашим партнерским ссылкам ниже.

[underverse.su].t19472.torrent
Трекер: Зарегистрирован   [ 27.08.2012 16:34 ]  

Статус: проверено (by garry at 27.08.2012 16:35)
Поблагодарили: 1 человек
Тип торрента: публичный - доступные источники с открытых трекеров: 
Размер: 3,67 GB (занимает 0,84 DVDR, для записи нужно 1 болванка DVDR/RW)
 
 
Похожие темы
Форум Тема Автор Торрент Отв. Посл. сооб.
Зарубежное кино [HDDVDRip / BDRip / WEB-DL / HDTV 1080/720р] Королевская битва в 3D / Batoru rowaiaru in 3D (Киндзи Фукасаку) [2000 г., ужасы, фантастика, боевик, триллер, драма, приключения, ] Dub Анаглиф (Дюбуа) slaventi-69
0 | 0

0 | 959

4

29.05.2013 19:20

garry Пол:Муж

27-Авг-2012 16:36

смотрим и сравниваем с "Голодными играми" :D

theatre Пол:Муж

27-Авг-2012 17:38

gari писал(а):

смотрим и сравниваем с "Голодными играми" :D
ок)

HDDman Пол:Муж

01-Сен-2012 04:52

gari писал(а):

смотрим и сравниваем с "Голодными играми" :D
Я уже сравнивал, если бы Таками был мертв, он бы ворочался в гробу :D
P. S. А в чем отличие от театралки?

Яндекс.Метрика powered by Sphinx


В Н И М А Н И Е
Сайт не распространяет и не хранит электронные версии произведений, а лишь бесплатно и без коммерческой выгоды (не требуя взамен платы,
SMS и т.д.) предоставляет доступ к создаваемому пользователями каталогу ссылок на торрент-файлы, которые содержат только списки хеш-сумм.
Убедительная просьба с жалобами обращаться напрямую к пользователю, разместившему торрент файл.

Вверх