Loading...
Error

Футурама / Futurama / Сезон 7, серии 1-9 (Мэтт Гроунинг / Matt Groening) [2012 г., комедия, фантастика, WEBDLRip]

Статистика раздачи
Размер:  2,11 GB   |    Зарегистрирован:  4 года 3 месяца   |    Скачан:  9 раз
Сидов:  1  |  0 KB/s  ]   Личеров:  0  |  0 KB/s  ]

* - сиды/пиры с внешних источников

   
 
Автор Сообщение

Allozio 

27-Авг-2012 04:35

Футурама / Futurama / Сезон 7, серии 1-9


Год выпуска: 2012
Жанр: комедия, фантастика
Страна: США
Режиссер: Мэтт Гроунинг / Matt Groening
Роли озвучивали: КетчупТВ
Сюжет фильма:
Действие мультфильма разворачивается, в основном, в будущем, а именно, в XXXI веке. Главным героем является Нью-Йоркский паренёк, Фрай, который 31 декабря 1999 года был случайно заморожен в криогенной камере, а разморожен через тысячу лет. В новом времени он знакомится с роботом Бендером, инопланетной девушкой Лилой и со своим пра-пра-пра-пра-пра-пра-пра-пра-пра-пра-племянником, профессором Хьюбертом Фарнсвордом, а потом и с Гермесом, Эмми, Зойдбергом и Нибблером. Все они работают в транспортно-экспедиционной компании «Межпланетный экспресс».
Качество видео: WEBDLRip

Продолжительность: 00:21:38
Формат: H264
Видео: MPEG4 Video (H264) 640x360 24fps 1 468 Kbps
Аудио #1: MPEG Audio Layer 3 44100Hz stereo 128kbps (с третьей серии - 48000Hz)

Код:

General
Format : AVI
Format/Info : Audio Video Interleave
File size : 246 MiB
Duration : 21mn 38s
Overall bit rate mode : Variable
Overall bit rate : 1 590 Kbps
Writing application : Lavf52.94.0

Video
ID : 0
Format : AVC
Format/Info : Advanced Video Codec
Format profile : Main@L3.0
Format settings, CABAC : Yes
Format settings, ReFrames : 1 frame
Format settings, GOP : M=1, N=15
Codec ID : H264
Duration : 21mn 38s
Bit rate mode : Variable
Bit rate : 1 450 Kbps
Maximum bit rate : 4 406 Kbps
Width : 640 pixels
Height : 360 pixels
Display aspect ratio : 16:9
Frame rate : 24.000 fps
Color space : YUV
Chroma subsampling : 4:2:0
Bit depth : 8 bits
Scan type : Progressive
Bits/(Pixel*Frame) : 0.262
Stream size : 224 MiB (91%)

Audio
ID : 1
Format : MPEG Audio
Format version : Version 1
Format profile : Layer 3
Mode : Joint stereo
Mode extension : MS Stereo
Codec ID : 55
Codec ID/Hint : MP3
Duration : 21mn 38s
Bit rate mode : Constant
Bit rate : 128 Kbps
Channel(s) : 2 channels
Sampling rate : 44.1 KHz
Compression mode : Lossy
Stream size : 19.8 MiB (8%)
Alignment : Aligned on interleaves
Interleave, duration : 26 ms (0.63 video frame)
Writing library : LAME3.98.4
picpicpic
Для увеличения картинки щелкните мышкой по превью

Этот торрент недоступен для скачивания без регистрации, однако доступен по публичной magnet-ссылке (источники с публичных трекеров). Перед использованием ссылки прочтите, пожалуйста Пользовательское соглашение, а также как можно дольше оставайтесь на раздаче! Для того, чтобы скачать сам торрент-файл (который видит больше источников), а также для того, чтобы поблагодарить релизера, вам необходимо зарегистрироваться. Если регистрироваться лень - вы можете также попробовать скачать релиз по нашим партнерским ссылкам ниже.

[underverse.su].t19466.torrent
Трекер: Зарегистрирован   [ 27.08.2012 04:45 ]  

Статус: проверено (by garry at 27.08.2012 14:46)
Поблагодарили: 1 человек
Тип торрента: публичный - доступные источники с открытых трекеров: 
Размер: 2,11 GB (занимает 0,48 DVDR, для записи нужно 1 болванка DVDR/RW)
 
 
Похожие темы
Форум Тема Автор Торрент Отв. Посл. сооб.
Мультсериалы Футурама / Futurama 1-5 сезон [1999-2003 г., Фантастика, DVDRip] MVO + Original (Eng) uzi2009
16 | 1

0 | 872

5

01.05.2014 20:04

Архив Футурама / Futurama (Сезон 06 Серия 6-7) [2010 г., Комедия, Мультипликация, WEB-DLRip] BartSimpson
0 | 0

2 | 1398

0

17.02.2011 14:46

Архив Футурама / Futurama (Сезон 06 Серия 1-3) [2010 г., Комедия, Мультипликация, WEB-DLRip] GanibalKing
0 | 0

9 | 1783

0

12.11.2010 23:48

Архив Футурама / Futurama [6 Сезон: 1-12 из ??] (Мэтт Гроунинг, Дэвид Коуэн) [2010 г., Мультсериал, HDTVRip](Озвучка от LostFilm.tv) Caribou
0 | 0

1 | 833

0

17.02.2011 14:46

Nightwalker Пол:Муж

24-Сен-2012 23:35

Благодарю

Cookie 

01-Окт-2012 11:21

благодарю

forspam07 

04-Окт-2012 19:12

Спасибо огромное.

Яндекс.Метрика powered by Sphinx


В Н И М А Н И Е
Сайт не распространяет и не хранит электронные версии произведений, а лишь бесплатно и без коммерческой выгоды (не требуя взамен платы,
SMS и т.д.) предоставляет доступ к создаваемому пользователями каталогу ссылок на торрент-файлы, которые содержат только списки хеш-сумм.
Убедительная просьба с жалобами обращаться напрямую к пользователю, разместившему торрент файл.

Вверх