Loading...
Error

Не было бы счастья / Серии: 1-4 из 4 (Алексей Праздников) [2012 г., мелодрама, DVDRip]

Статистика раздачи
Размер:  2,73 GB   |    Зарегистрирован:  4 года 3 месяца   |    Скачан:  4 раза

Полного источника не было: 2 года

Сидов:  0  |  0 KB/s  ]   Личеров:  0  |  0 KB/s  ]

* - сиды/пиры с внешних источников

   
 
Автор Сообщение

nemos Пол:Муж

27-Авг-2012 02:12

Не было бы счастья / Серии: 1-4 из 4 (Алексей Праздников)


Год выпуска: 2012
Жанр: мелодрама
Страна: Россия
Режиссер: Алексей Праздников
В ролях: Алексей Барабаш, Наталия Антонова, Андрей Кузнецов
Сюжет фильма:
Алена может считаться вполне успешной дамой: умная, красивая, с хорошей работой в финансовой компании, квартирой в центре Москвы, надежным непьющим гражданским мужем Олегом. Счастье близко, но есть проблема: Олег категорически против детей. Однажды компания Алены устраивала корпоративную вечеринку. На нее, как водится, пригласили «звезду». Вадим, сорокалетний певец, развлекал публику любимыми хитами. Между ним и Аленой вспыхнул роман. Они провели безумную, страстную ночь. Такого в жизни Алены еще не было. Алена, жившая со спокойным, рассудительным Олегом, никогда ему не изменявшая, была просто ошеломлена. Ради Алены Вадим готов развестись с «давно-не-любимой» женой, завести вместе детей и бросить к ее ногам весь мир. Алена стоит перед сложным выбором — спокойная жизнь с Олегом, но детей в ней не будет, или «звездная» жизнь с Вадимом со всеми ее сложностями.

Вадим приглашает Алену на свой день рождения в приморский городок, в дом родителей. А по возвращении в Москву Алена с ужасом понимает, что стараниями вездесущих папарацци, об их романе знает уже вся столица. Когда Алена, объяснившись с Олегом, уходит к Вадиму, ее ждет настоящий удар — Вадим пребывает в запое, как выясняется, с алкоголем у него огромные проблемы. Как поведет себя Алена в этих обстоятельствах? Сможет ли Олег простить ей измену? Действительно ли чувства Вадима настолько крепки и серьезны?


Качество видео: DVDRip

Продолжительность: 00:52:00 серия
Формат: AVI
Видео: XviD, 720x400, 1 689 kbps
Аудио: русский, AC3 2.0, 192 kbps

Код:

E:\СКАЧКИ\С underverse\Ne.bylo.by.schastja.2012.O.DVDRip\Ne.bylo.by.schastja.seriya.4iz4.2012.O.DVDRip.IRONCLUB.avi
   General
      Complete name : E:\СКАЧКИ\С underverse\Ne.bylo.by.schastja.2012.O.DVDRip\Ne.bylo.by.schastja.seriya.4iz4.2012.O.DVDRip.IRONCLUB.avi
      Format : AVI
      Format/Info : Audio Video Interleave
      File size : 700 MiB
      Duration : 51mn 44s
      Overall bit rate : 1 891 Kbps
      Movie name : Ne.bylo.by.schastja.seriya.4iz4.2012.O.DVDRip.IRONCLUB
      Director : IRONCLUB
      Writing application : VirtualDubMod 1.5.10.3 | www.virtualdub-fr.org || (build 2550/release)
   Video #0
      ID : 0
      Format : MPEG-4 Visual
      Format profile : Advanced Simple@L5
      Format settings, BVOP : Yes
      Format settings, QPel : No
      Format settings, GMC : No warppoints
      Format settings, Matrix : Custom
      Codec ID : XVID
      Codec ID/Hint : XviD
      Duration : 51mn 44s
      Bit rate : 1 689 Kbps
      Width : 720 pixels
      Height : 400 pixels
      Display aspect ratio : 16:9
      Frame rate : 25.000 fps
      Color space : YUV
      Chroma subsampling : 4:2:0
      Bit depth : 8 bits
      Scan type : Progressive
      Bits/(Pixel*Frame) : 0.235
      Stream size : 625 MiB (89%)
      Writing library : XviD 1.2.1 (UTC 2008-12-04)
   Audio #1
      ID : 1
      Format : AC-3
      Format/Info : Audio Coding 3
      Mode extension : CM (complete main)
      Codec ID : 2000
      Duration : 51mn 43s
      Bit rate mode : Constant
      Bit rate : 192 Kbps
      Channel(s) : 2 channels
      Channel positions : Front: L R
      Sampling rate : 48.0 KHz
      Stream size : 71.0 MiB (10%)
      Alignment : Split accross interleaves
      Interleave, duration : 40 ms (1.00 video frame)
      Interleave, preload duration : 500 ms
Семпл: http://multi-up.com/752100

Релиз группы:

picpicpicpicpicpicpicpicpicpic
Для увеличения картинки щелкните мышкой по превью

Этот торрент недоступен для скачивания без регистрации, однако доступен по публичной magnet-ссылке (источники с публичных трекеров). Перед использованием ссылки прочтите, пожалуйста Пользовательское соглашение, а также как можно дольше оставайтесь на раздаче! Для того, чтобы скачать сам торрент-файл (который видит больше источников), а также для того, чтобы поблагодарить релизера, вам необходимо зарегистрироваться. Если регистрироваться лень - вы можете также попробовать скачать релиз по нашим партнерским ссылкам ниже.

[underverse.su].t19464.torrent
Трекер: Зарегистрирован   [ 27.08.2012 02:12 ]  

Статус: проверено (by garry at 27.08.2012 08:36)
Поблагодарили: пока никто не поблагодарил...
Тип торрента: публичный - доступные источники с открытых трекеров: 
Размер: 2,73 GB (занимает 0,62 DVDR, для записи нужно 1 болванка DVDR/RW)
 
 
Похожие темы
Форум Тема Автор Торрент Отв. Посл. сооб.
xUSSR сериалы Не было бы счастья 2 / Серии: 1-2 из 2 (Алексей Праздников) [2014 г., Мелодрама, HDTVRip] Ведьмочка
4 | 2

0 | 506

8

24.08.2014 09:00

xUSSR сериалы [BD / Remux / BDRip / WEB-DL / HDTV 1080/720р] Не было бы счастья 2 / Серии: 1-2 из 2 (Алексей Праздников) [2014 г., Мелодрама, HDTV 1080p] Ведьмочка
1 | 0

0 | 668

1

24.08.2014 08:41

xUSSR сериалы [BD / Remux / BDRip / WEB-DL / HDTV 1080/720р] Не было бы счастья 2 / Серии: 1-2 из 2 (Алексей Праздников) [2014 г., Мелодрама, HDTVRip 720p] Ведьмочка
0 | 1

0 | 591

3

24.08.2014 11:34


Яндекс.Метрика powered by Sphinx


В Н И М А Н И Е
Сайт не распространяет и не хранит электронные версии произведений, а лишь бесплатно и без коммерческой выгоды (не требуя взамен платы,
SMS и т.д.) предоставляет доступ к создаваемому пользователями каталогу ссылок на торрент-файлы, которые содержат только списки хеш-сумм.
Убедительная просьба с жалобами обращаться напрямую к пользователю, разместившему торрент файл.

Вверх