Loading...
Error

Звездный десант: Вторжение / Starship Troopers: Invasion (Синдзи Арамаки) [2012 г., мультфильм, фантастика, боевик, HDRip]

Статистика раздачи
Размер:  1,41 GB   |    Зарегистрирован:  4 года 3 месяца   |    Скачан:  22 раза

Полного источника не было: 9 месяцев

Сидов:  0  |  0 KB/s  ]   Личеров:  0  |  0 KB/s  ]

* - сиды/пиры с внешних источников

   
 
Автор Сообщение

theatre Пол:Муж

26-Авг-2012 20:58

Звездный десант: Вторжение / Starship Troopers: Invasion


Год выпуска: 2012
Жанр: мультфильм, фантастика, боевик
Страна: США
Режиссер: Синдзи Арамаки
Сюжет фильма:
После того, как был покинут отдаленный форпост Федерации, Форт Кейси, Карл Дженкинс отправляется на разведку и исчезает в туманности. Закаленные во множественных боях солдаты могут своими действиями принести на Землю смерть человечества, а могут и наоборот его спасти. Третьего не дано.

  • Мировая премьера: 21 июля 2012


Качество видео: HDRip

Продолжительность: 01:28:48

Формат: avi
Видео: XviD, 720x400, 1820 kbps
Аудио: русский, многоголосый закадровый (профессиональный), AC3 5.1, 448 kbps

Код:

General
Complete name                    : C:\downloads\Starship Troopers Invasion.avi
Format                           : AVI
Format/Info                      : Audio Video Interleave
File size                        : 1.41 GiB
Duration                         : 1h 28mn
Overall bit rate                 : 2 277 Kbps
Writing application              : VirtualDubMod 1.5.10.2 (build 2540/release)
Writing library                  : VirtualDubMod build 2540/release

Video
ID                               : 0
Format                           : MPEG-4 Visual
Format profile                   : Streaming Video@L1
Format settings, BVOP            : Yes
Format settings, QPel            : No
Format settings, GMC             : No warppoints
Format settings, Matrix          : Default (H.263)
Codec ID                         : XVID
Codec ID/Hint                    : XviD
Duration                         : 1h 28mn
Bit rate                         : 1 820 Kbps
Width                            : 720 pixels
Height                           : 400 pixels
Display aspect ratio             : 16/9
Frame rate                       : 23.976 fps
Resolution                       : 24 bits
Colorimetry                      : 4:2:0
Scan type                        : Progressive
Bits/(Pixel*Frame)               : 0.264
Stream size                      : 1.13 GiB (80%)
Writing library                  : XviD 1.2.1 (UTC 2008-12-04)

Audio
ID                               : 1
Format                           : AC-3
Format/Info                      : Audio Coding 3
Codec ID                         : 2000
Duration                         : 1h 28mn
Bit rate mode                    : Constant
Bit rate                         : 448 Kbps
Channel(s)                       : 6 channels
Channel positions                : Front: L C R, Surround: L R, LFE
Sampling rate                    : 48.0 KHz
Stream size                      : 285 MiB (20%)
Alignment                        : Split accross interleaves
Interleave, duration             : 42 ms (1.00 video frame)
Interleave, preload duration     : 500 ms

Семпл: http://sendfile.su/653566

picpic
Для увеличения картинки щелкните мышкой по превью

Этот торрент недоступен для скачивания без регистрации, однако доступен по публичной magnet-ссылке (источники с публичных трекеров). Перед использованием ссылки прочтите, пожалуйста Пользовательское соглашение, а также как можно дольше оставайтесь на раздаче! Для того, чтобы скачать сам торрент-файл (который видит больше источников), а также для того, чтобы поблагодарить релизера, вам необходимо зарегистрироваться. Если регистрироваться лень - вы можете также попробовать скачать релиз по нашим партнерским ссылкам ниже.

[underverse.su].t19454.torrent
Трекер: Зарегистрирован   [ 26.08.2012 20:58 ]  

Статус: проверено (by garry at 27.08.2012 08:53)
Поблагодарили: 1 человек
Тип торрента: публичный - доступные источники с открытых трекеров: 
Размер: 1,41 GB (занимает 0,32 DVDR, для записи нужно 1 болванка DVDR/RW)
 
 
Похожие темы
Форум Тема Автор Торрент Отв. Посл. сооб.
Зарубежное кино [DVDRip, Low-Res HDRip, и т.д.] Звездный десант / Starship Troopers (Пол Верховен / Paul Verhoeven) [1997 г., фантастика, боевик, BDRip-AVC] Dub + MVO + 2xAVO + Original garry
90 | 2

0 | 1532

12

03.12.2013 17:40

Мультфильмы HQ Звездный десант: Вторжение / Starship Troopers: Invasion (Синдзи Арамаки) [2012 г., мультфильм, фантастика, боевик, HDRip] (Rus, Eng) HQ Underverse HQ Underverse
0 | 0

0 | 1491

46

27.08.2012 04:55

sam_no 

01-Сен-2012 08:50

а раздача-то будет? полдня закачки ноль!

Gerix Пол:Муж

09-Ноя-2012 13:32

Если кому интересно, я на раздаче

Яндекс.Метрика powered by Sphinx


В Н И М А Н И Е
Сайт не распространяет и не хранит электронные версии произведений, а лишь бесплатно и без коммерческой выгоды (не требуя взамен платы,
SMS и т.д.) предоставляет доступ к создаваемому пользователями каталогу ссылок на торрент-файлы, которые содержат только списки хеш-сумм.
Убедительная просьба с жалобами обращаться напрямую к пользователю, разместившему торрент файл.

Вверх