Loading...
Error

Без следа (1-23 серии из 23) (Станислав Либин) [2012 г., детектив, SATRip]

Статистика раздачи
Размер:  13,61 GB   |    Зарегистрирован:  4 года 3 месяца   |    Скачан:  8 раз

Полного источника не было: 2 года

Сидов:  0  |  0 KB/s  ]   Личеров:  0  |  0 KB/s  ]

* - сиды/пиры с внешних источников

   
 
Автор Сообщение

nemos Пол:Муж

25-Авг-2012 18:22

Без следа (1-23 серии из 23)


Год выпуска: 2012
Жанр: детектив
Страна: Россия
Режиссер: Станислав Либин
В ролях: Игорь Черневич, Ирина Розанова, Мария Берсенева, Константин Крюков, Евгений Миллер, Кирилл Кяро, Константин Демидов, Ирина Баринова, Виктор Бычков, Ольга Науменко
Сюжет фильма:
Их пятеро. Они — следственная бригада. Рациональный и опытный Нефедов, его правая рука Мария, ответственный, но часто заблуждающийся Денис, романтичная и азартная Светлана, и Филипп — «золотой» сынок отца-фсбшника, пришедший набраться опыта.

Перед ними практически невыполнимая задача — найти бесследно исчезнувшего человека. У пропавших, на первый взгляд, нет ни явных врагов, ни мотивов скрываться. Это самые разные люди — успешная женщина-бизнесмен, неудачливая манекенщица, подрабатывающая продавцом, ученик, решивший бросить школу, маленький мальчик, ехавший с отцом на футбольный матч… Чтобы выйти на след пропавших, нашим героям придется не только подключить опыт и профессиональное чутье, но и стать полноценной командой и научиться слышать друг друга — нередко самые, на первый взгляд, абсурдные догадки выведут на верный путь…


Качество видео: SatRip

Продолжительность: 00:51:00 x 23
Формат: AVI
Видео: XviD, 720x400, 1 548 kbps
Аудио: русский, MP3 2.0, 192 kbps

Код:

E:\СКАЧКИ\С underverse\Bez.sleda.2012.SATRip\Bez.sleda.(06.seriya.iz.23).2012.XviD.SATRip.avi
   General
      Complete name : E:\СКАЧКИ\С underverse\Bez.sleda.2012.SATRip\Bez.sleda.(06.seriya.iz.23).2012.XviD.SATRip.avi
      Format : AVI
      Format/Info : Audio Video Interleave
      File size : 597 MiB
      Duration : 47mn 41s
      Overall bit rate : 1 750 Kbps
      Writing application : VirtualDubModRus 1.5.10.2 (build 2542/release)
      Writing library : VirtualDubMod build 2542/release
   Video #0
      ID : 0
      Format : MPEG-4 Visual
      Format profile : Advanced Simple@L5
      Format settings, BVOP : Yes
      Format settings, QPel : No
      Format settings, GMC : No warppoints
      Format settings, Matrix : Default (H.263)
      Codec ID : XVID
      Codec ID/Hint : XviD
      Duration : 47mn 41s
      Bit rate : 1 548 Kbps
      Width : 720 pixels
      Height : 400 pixels
      Display aspect ratio : 16:9
      Frame rate : 25.000 fps
      Color space : YUV
      Chroma subsampling : 4:2:0
      Bit depth : 8 bits
      Scan type : Progressive
      Bits/(Pixel*Frame) : 0.215
      Stream size : 528 MiB (88%)
      Writing library : XviD 1.2.1 (UTC 2008-12-04)
   Audio #1
      ID : 1
      Format : MPEG Audio
      Format version : Version 1
      Format profile : Layer 3
      Mode : Joint stereo
      Mode extension : MS Stereo
      Codec ID : 55
      Codec ID/Hint : MP3
      Duration : 47mn 41s
      Bit rate mode : Constant
      Bit rate : 192 Kbps
      Channel(s) : 2 channels
      Sampling rate : 48.0 KHz
      Stream size : 65.5 MiB (11%)
      Alignment : Aligned on interleaves
      Interleave, duration : 40 ms (1.00 video frame)
      Interleave, preload duration : 504 ms
      Writing library : LAME3.98r
      Encoding settings : -m j -V 4 -q 2 -lowpass 18.6 -b 192
Семпл: http://multi-up.com/751524

picpicpicpicpicpicpicpic
Для увеличения картинки щелкните мышкой по превью

Этот торрент недоступен для скачивания без регистрации, однако доступен по публичной magnet-ссылке (источники с публичных трекеров). Перед использованием ссылки прочтите, пожалуйста Пользовательское соглашение, а также как можно дольше оставайтесь на раздаче! Для того, чтобы скачать сам торрент-файл (который видит больше источников), а также для того, чтобы поблагодарить релизера, вам необходимо зарегистрироваться. Если регистрироваться лень - вы можете также попробовать скачать релиз по нашим партнерским ссылкам ниже.

[underverse.su].t19432.torrent
Трекер: Зарегистрирован   [ 25.08.2012 18:22 ]  

Статус: проверено (by garry at 25.08.2012 19:28)
Поблагодарили: 2 человека
Тип торрента: публичный - доступные источники с открытых трекеров: 
Размер: 13,61 GB (занимает 3,11 DVDR, для записи нужно 4 болванки DVDR/RW)
 
 

Яндекс.Метрика powered by Sphinx


В Н И М А Н И Е
Сайт не распространяет и не хранит электронные версии произведений, а лишь бесплатно и без коммерческой выгоды (не требуя взамен платы,
SMS и т.д.) предоставляет доступ к создаваемому пользователями каталогу ссылок на торрент-файлы, которые содержат только списки хеш-сумм.
Убедительная просьба с жалобами обращаться напрямую к пользователю, разместившему торрент файл.

Вверх