Loading...
Error

К югу от луны / South of the Moon (Антонио Ди Вердис / Antonio DiVerdis) [2008 г., драма, DVDRip]

Статистика раздачи
Размер:  1,36 GB   |    Зарегистрирован:  4 года 3 месяца   |    Скачан:  7 раз

Полного источника не было: 4 дня

Сидов:  0  |  0 KB/s  ]   Личеров:  0  |  0 KB/s  ]

* - сиды/пиры с внешних источников

   
 
Автор Сообщение

AVGCorp Пол:Муж

25-Авг-2012 00:44

К югу от луны / South of the Moon


Год выпуска: 2008
Жанр: драма
Страна: Канада
Режиссер: Антонио Ди Вердис / Antonio DiVerdis
В ролях: Джейк МакЛеод, Джон Ралстон, Мойя О’Коннелл, Джэйн Хейтмейер, Джонатан Боске, Кэтлин МакОлиффи, Бьянка Мерджел и другие
Сюжет фильма:
Двенадцатилетнему Колеману снится женщина, с которой они гуляют в полях. Мать, до странности торопливо, отмахивается от утренних вопросов сына, а отец обрывает любые попытки заговорить о волнующих Колемана проблемах, нарочито скучными нотациями и поучениями....
Изумительно красивый фильм, перекликающийся с лучшими образцами скандинавской кинематографии, но снятый в Канаде...
История мальчика, находящегося на перекрёстке сложных и запутанных путей взросления, и его самого близкого человека - родного дяди, с болью и муками переживающего свою не сложившуюся жизнь. Жизнь разворачивается перед Колеманом, преподнося ему всё новые уроки взросления, - первая влюблённость, первая любовь, первый выбор, первые потери.... Хорошо, что дядя Мэт всегда рядом, - может посочувствовать, понять, помочь, подсказать ответы на вопросы.... И горе им, - "Во многих знаниях - многие печали..."

Доп. информация: Приз за лучший саундтрек (Тибурон, 2009)
Композитор: Silent Blue
Слоган: «The past is always right behind you»
Сценарий: Стефен М. Райдер, Antonio DiVerdis
Оператор: Бруно Филип
Художники: Джозеф Ганье, Морис Рой
Монтаж: Дэвид Ди Франческо

Доп. инфо о переводе: Problem2ooo и DIMON

  • Мировая премьера: 22 августа 2008
  • Российская премьера: Нет


Качество видео: DVDRip

Продолжительность: 01:48:45
Формат: AVI
Видео: XviD, 640x272, 1337 kbps
Аудио: английский, оригинал, AC3 5.1, 448 kbps
Субтитры: тип: внешние, русский, формат: SRT

Код:

Format : AVI
Format/Info : Audio Video Interleave
File size : 1.36 GiB
Duration : 1h 48mn
Overall bit rate : 1 791 Kbps
Writing application : VirtualDubMod 1.5.10.2 (build 2540/release)
Writing library : VirtualDub build 32706/release

Video
ID : 0
Format : MPEG-4 Visual
Format profile : Advanced Simple@L5
Format settings, BVOP : 2
Format settings, QPel : No
Format settings, GMC : No warppoints
Format settings, Matrix : Default (H.263)
Codec ID : XVID
Codec ID/Hint : XviD
Duration : 1h 48mn
Bit rate : 1 334 Kbps
Width : 640 pixels
Height : 272 pixels
Display aspect ratio : 2.35:1
Frame rate : 23.976 fps
Color space : YUV
Chroma subsampling : 4:2:0
Bit depth : 8 bits
Scan type : Progressive
Compression mode : Lossy
Bits/(Pixel*Frame) : 0.320
Stream size : 1.01 GiB (75%)
Writing library : XviD 1.2.1 (UTC 2008-12-04)

Audio
ID : 1
Format : AC-3
Format/Info : Audio Coding 3
Mode extension : CM (complete main)
Codec ID : 2000
Duration : 1h 48mn
Bit rate mode : Constant
Bit rate : 448 Kbps
Channel(s) : 6 channels
Channel positions : Front: L C R, Side: L R, LFE
Sampling rate : 48.0 KHz
Bit depth : 16 bits
Compression mode : Lossy
Stream size : 348 MiB (25%)
Alignment : Split accross interleaves
Interleave, duration : 42 ms (1.00 video frame)
Interleave, preload duration : 500 ms
picpicpicpic
Для увеличения картинки щелкните мышкой по превью

Этот торрент недоступен для скачивания без регистрации, однако доступен по публичной magnet-ссылке (источники с публичных трекеров). Перед использованием ссылки прочтите, пожалуйста Пользовательское соглашение, а также как можно дольше оставайтесь на раздаче! Для того, чтобы скачать сам торрент-файл (который видит больше источников), а также для того, чтобы поблагодарить релизера, вам необходимо зарегистрироваться. Если регистрироваться лень - вы можете также попробовать скачать релиз по нашим партнерским ссылкам ниже.

[underverse.su].t19422.torrent
Трекер: Зарегистрирован   [ 25.08.2012 00:44 ]  

Статус: проверено (by Паукан at 25.08.2012 02:37)
Поблагодарили: пока никто не поблагодарил...
Тип торрента: публичный - доступные источники с открытых трекеров: 
Размер: 1,36 GB (занимает 0,31 DVDR, для записи нужно 1 болванка DVDR/RW)
 
 
Похожие темы
Форум Тема Автор Торрент Отв. Посл. сооб.
Зарубежное кино [DVDRip, Low-Res HDRip, и т.д.] К югу от Луны / South of the Moon (Антонио ДиВердис) [2008 г., драма, DVDRip-AVC] VO + Original makkol
3 | 0

0 | 364

4

13.07.2016 13:48


Яндекс.Метрика powered by Sphinx


В Н И М А Н И Е
Сайт не распространяет и не хранит электронные версии произведений, а лишь бесплатно и без коммерческой выгоды (не требуя взамен платы,
SMS и т.д.) предоставляет доступ к создаваемому пользователями каталогу ссылок на торрент-файлы, которые содержат только списки хеш-сумм.
Убедительная просьба с жалобами обращаться напрямую к пользователю, разместившему торрент файл.

Вверх