Loading...
Error

Мстители / The Avengers (Джосс Уидон) [2012 г., фантастика, боевик, триллер, HDRip] (Rus, Eng, Ukr) HQ Underverse

Статистика раздачи
Размер:  2,91 GB   |    Зарегистрирован:  4 года 3 месяца   |    Скачан:  240 раз

Полного источника не было: 6 часов

Сидов:  0  |  0 KB/s  ]   Личеров:  0  |  0 KB/s  ]

* - сиды/пиры с внешних источников

   
 
Автор Сообщение

HQ Underverse 

22-Авг-2012 21:03

Мстители / The Avengers


Год выпуска: 2012
Жанр: фантастика, боевик, триллер
Страна: США
Режиссер: Джосс Уидон
В ролях: Роберт Дауни мл., Крис Эванс, Марк Руффало, Крис Хемсворт, Скарлетт Йоханссон, Джереми Реннер, Том Хиддлстон, Сэмюэл Л. Джексон, Кларк Грегг, Коби Смолдерс
Сюжет фильма:
Локи, сводный брат Тора, возвращается, и в этот раз он не один. Земля на грани порабощения, и только лучшие из лучших могут спасти человечество.

Ник Фьюри, глава международной организации Щ. И. Т., собирает выдающихся поборников справедливости и добра, чтобы отразить атаку. Под предводительством Капитана Америки Железный Человек, Тор, Невероятный Халк, Соколиный глаз и Чёрная Вдова вступают в войну с захватчиком.

  • Мировая премьера: 25 апреля 2012
  • Российская премьера: 3 мая 2012, «WDSSPR» 3D

|
Качество видео: HDRip

Продолжительность: 02:22:54
Формат: avi
Видео: XviD, 720x400, 2129 kbps
Аудио #1: русский, дублированный [лицензия], AC3 5.1, 384 kbps
Аудио #2: английский, оригинал, AC3 5.1, 384 kbps
Аудио #3: украинский, дублированный [лицензия], AC3 5.1, 384 kbps (отдельным файлом: здесь)
Субтитры #1: внешние, SRT, английский
Субтитры #2: внешние, SRT, русский (FORCED)
Субтитры #3: внешние, SRT, русский
Субтитры #4: внешние, SRT, украинский (FORCED)
Субтитры #5: внешние, SRT, украинский

Код:

General
Complete name                    : Z:\Видео\HQ\Мстители\The.Avengers.2012.HDRip.XviD.AC3.Rus.D.Eng.O.HQ.Underverse.avi
Format                           : AVI
Format/Info                      : Audio Video Interleave
Format profile                   : OpenDML
File size                        : 2.91 GiB
Duration                         : 2h 22mn
Overall bit rate                 : 2 914 Kbps
Writing application              : VirtualDubMod 1.5.10.2 (build 2542/release)
Writing library                  : VirtualDubMod build 2542/release

Video
ID                               : 0
Format                           : MPEG-4 Visual
Format profile                   : Streaming Video@L1
Format settings, BVOP            : Yes
Format settings, QPel            : No
Format settings, GMC             : No warppoints
Format settings, Matrix          : Custom
Muxing mode                      : Packed bitstream
Codec ID                         : XVID
Codec ID/Hint                    : XviD
Duration                         : 2h 22mn
Bit rate                         : 2 129 Kbps
Width                            : 720 pixels
Height                           : 400 pixels
Display aspect ratio             : 16/9
Frame rate                       : 23.976 fps
Resolution                       : 24 bits
Colorimetry                      : 4:2:0
Scan type                        : Progressive
Bits/(Pixel*Frame)               : 0.308
Stream size                      : 2.13 GiB (73%)
Writing library                  : XviD 64

Audio #1
ID                               : 1
Format                           : AC-3
Format/Info                      : Audio Coding 3
Codec ID                         : 2000
Duration                         : 2h 22mn
Bit rate mode                    : Constant
Bit rate                         : 384 Kbps
Channel(s)                       : 6 channels
Channel positions                : Front: L C R, Surround: L R, LFE
Sampling rate                    : 48.0 KHz
Stream size                      : 393 MiB (13%)
Alignment                        : Split accross interleaves
Interleave, duration             : 42 ms (1.00 video frame)
Interleave, preload duration     : 500 ms

Audio #2
ID                               : 2
Format                           : AC-3
Format/Info                      : Audio Coding 3
Codec ID                         : 2000
Duration                         : 2h 22mn
Bit rate mode                    : Constant
Bit rate                         : 384 Kbps
Channel(s)                       : 6 channels
Channel positions                : Front: L C R, Surround: L R, LFE
Sampling rate                    : 48.0 KHz
Stream size                      : 393 MiB (13%)
Alignment                        : Split accross interleaves
Interleave, duration             : 42 ms (1.00 video frame)
Interleave, preload duration     : 500 ms

General
Complete name                    : Z:\Видео\HQ\Мстители\The.Avengers.2012.HDRip.XviD.AC3.Rus.D.Eng.O.HQ.Underverse.UKR.ac3
Format                           : AC-3
Format/Info                      : Audio Coding 3
File size                        : 393 MiB
Duration                         : 2h 22mn
Overall bit rate                 : 384 Kbps

Audio
Format                           : AC-3
Format/Info                      : Audio Coding 3
Duration                         : 2h 22mn
Bit rate mode                    : Constant
Bit rate                         : 384 Kbps
Channel(s)                       : 6 channels
Channel positions                : Front: L C R, Surround: L R, LFE
Sampling rate                    : 48.0 KHz
Stream size                      : 393 MiB (100%)

Семпл: http://multi-up.com/750223

Релиз группы:

picpicpic
Для увеличения картинки щелкните мышкой по превью

Этот торрент недоступен для скачивания без регистрации, однако доступен по публичной magnet-ссылке (источники с публичных трекеров). Перед использованием ссылки прочтите, пожалуйста Пользовательское соглашение, а также как можно дольше оставайтесь на раздаче! Для того, чтобы скачать сам торрент-файл (который видит больше источников), а также для того, чтобы поблагодарить релизера, вам необходимо зарегистрироваться. Если регистрироваться лень - вы можете также попробовать скачать релиз по нашим партнерским ссылкам ниже.

[underverse.su].t19387.torrent
Трекер: Зарегистрирован   [ 22.08.2012 21:03 ]  

Статус: проверено (by HQ Underverse at 22.08.2012 21:03)
Поблагодарили: 8 человек
Тип торрента: публичный - доступные источники с открытых трекеров: 
Размер: 2,91 GB (занимает 2/3 DVDR, для записи нужно 1 болванка DVDR/RW)
 
 
Похожие темы
Форум Тема Автор Торрент Отв. Посл. сооб.
Зарубежное кино [DVDRip, Low-Res HDRip, и т.д.] Мстители / The Avengers (Джосс Уидон) [2012 г., фантастика, боевик, триллер, DVDRip] [лицензия] RG NewCinema
0 | 0

3 | 14270

317

30.09.2012 09:29

Зарубежное кино [DVDRip, Low-Res HDRip, и т.д.] Мстители / The Avengers (Джосс Уидон) [2012 г., боевик, BDRip-AVC] Dub Garnett
0 | 0

0 | 7230

49

01.11.2012 11:58

Зарубежное кино [DVDRip, Low-Res HDRip, и т.д.] Мстители / The Avengers (Джосс Уидон) [2012 г., Фантастика, боевик, приключения, HDRip] AVO (Ю.Сербин) 90ytr90
1 | 0

0 | 1124

55

09.12.2012 14:26

Зарубежное кино [DVD / HDDVD / BD / Remux] Мстители / The Avengers (Джосс Уидон / Joss Whedon) [2012, фантастика, боевик, триллер, BDRemux 1080p] Dub + AVO (Юрий Сербин) + Sub (Rus, Eng) + Original Eng uzi2009
30 | 3

0 | 1011

12

22.01.2014 21:52

Зарубежное кино [DVD / HDDVD / BD / Remux] Мстители / The Avengers (Джосс Уидон / Joss Whedon) [2012 г., фантастика, боевик, приключения, Blu-ray Disc 1080p] uzi2009
6 | 0

1 | 1432

9

15.02.2014 14:55

sergeieternaПол:Муж

23-Авг-2012 21:17

:Yahoo!: :Yahoo!: :Yahoo!:

maddd Пол:Муж

23-Авг-2012 21:30

Офигенный фильм !!!

theatre Пол:Муж

24-Авг-2012 02:51

а мне вот показался средненьким...

Паукан Пол:Муж

24-Авг-2012 19:52

Глядя сначала "Морской бой", а потом "Мстителей" создалось стойкое ощущение того, что после сьемок "Трансформеров" осталось туева хуча неиспользованного реквизита, который и пошел на все эти фильмы :D Даже о характерных жужжаще-металлических звуках не забыли :) Интересно, фильмов на 10 еще хватит запасов? :D

AVATAR8 Пол:Муж

01-Сен-2012 03:36

Спасибо за релиз. Классный фильм!

wsd99 

01-Дек-2013 06:37

Встаньте на раздачу, плиз...

Яндекс.Метрика powered by Sphinx


В Н И М А Н И Е
Сайт не распространяет и не хранит электронные версии произведений, а лишь бесплатно и без коммерческой выгоды (не требуя взамен платы,
SMS и т.д.) предоставляет доступ к создаваемому пользователями каталогу ссылок на торрент-файлы, которые содержат только списки хеш-сумм.
Убедительная просьба с жалобами обращаться напрямую к пользователю, разместившему торрент файл.

Вверх