Loading...
Error

Войны Байкеров / Bikie Wars: Brothers in Arms (сезон 1, 1-6 серии) (Питер Андрикидис) [2012 г., драма, HDTVRip]

Статистика раздачи
Размер:  3,71 GB   |    Зарегистрирован:  4 года 3 месяца   |    Скачан:  7 раз

Полного источника не было: 2 года

Сидов:  0  |  0 KB/s  ]   Личеров:  0  |  0 KB/s  ]

* - сиды/пиры с внешних источников

   
 
Автор Сообщение

nemos Пол:Муж

18-Авг-2012 19:01

Войны Байкеров / Bikie Wars: Brothers in Arms [сезон 1, 1-6 серии ]


Год выпуска: 2012
Жанр: драма
Страна: Австралия
Режиссер: Питер Андрикидис
В ролях: Каллэн Мулвей, Мэтью Нэйбл, Сьюзи Портер, Мейв Дермоди, Энтони Хэйес, Ричард Коуторн, Люк Форд, Ричард Сазерленд, Damian Walshe-Howling, Люк Хемсворт
Сюжет фильма:
Сериал является реконструкцией реальных событий, приведших к Мильперрской бойне 2 сентября 1984 года между байкерами мотоклубов Команчеро и Бандидос.


Качество видео: HDTVRip

Продолжительность: 00:47:54 x 6
Формат: AVI
Видео: XviD, 720x400, 1 533 kbps
Аудио: русский, многоголосый закадровый (любительский), MP3 2.0, 192 kbps

Код:

E:\СКАЧКИ\С underverse\Bikie Wars Brothers in Arms\Bikie.Wars.Part.6.rus.eng.filmgate.R.G.Cinema.TV.avi
   General
      Complete name : E:\СКАЧКИ\С underverse\Bikie Wars Brothers in Arms\Bikie.Wars.Part.6.rus.eng.filmgate.R.G.Cinema.TV.avi
      Format : AVI
      Format/Info : Audio Video Interleave
      File size : 634 MiB
      Duration : 45mn 53s
      Overall bit rate : 1 931 Kbps
      Writing application : VirtualDubModRus 1.5.10.2 (build 2542/release)
      Writing library : VirtualDubMod build 2542/release
   Video #0
      ID : 0
      Format : MPEG-4 Visual
      Format profile : Advanced Simple@L5
      Format settings, BVOP : Yes
      Format settings, QPel : No
      Format settings, GMC : No warppoints
      Format settings, Matrix : Default (H.263)
      Codec ID : XVID
      Codec ID/Hint : XviD
      Duration : 45mn 53s
      Bit rate : 1 533 Kbps
      Width : 720 pixels
      Height : 400 pixels
      Display aspect ratio : 16:9
      Frame rate : 23.976 fps
      Color space : YUV
      Chroma subsampling : 4:2:0
      Bit depth : 8 bits
      Scan type : Progressive
      Bits/(Pixel*Frame) : 0.222
      Stream size : 503 MiB (79%)
      Writing library : XviD 64
   Audio #1
      ID : 1
      Format : MPEG Audio
      Format version : Version 1
      Format profile : Layer 3
      Mode : Joint stereo
      Codec ID : 55
      Codec ID/Hint : MP3
      Duration : 45mn 53s
      Bit rate mode : Constant
      Bit rate : 192 Kbps
      Channel(s) : 2 channels
      Sampling rate : 48.0 KHz
      Stream size : 63.0 MiB (10%)
      Alignment : Aligned on interleaves
      Interleave, duration : 42 ms (1.00 video frame)
      Interleave, preload duration : 504 ms
   Audio #2
      ID : 2
      Format : MPEG Audio
      Format version : Version 1
      Format profile : Layer 3
      Mode : Joint stereo
      Codec ID : 55
      Codec ID/Hint : MP3
      Duration : 45mn 53s
      Bit rate mode : Constant
      Bit rate : 192 Kbps
      Channel(s) : 2 channels
      Sampling rate : 48.0 KHz
      Stream size : 63.0 MiB (10%)
      Alignment : Aligned on interleaves
      Interleave, duration : 42 ms (1.00 video frame)
      Interleave, preload duration : 504 ms
Семпл: http://multi-up.com/748388

picpicpicpicpicpic
Для увеличения картинки щелкните мышкой по превью

Этот торрент недоступен для скачивания без регистрации, однако доступен по публичной magnet-ссылке (источники с публичных трекеров). Перед использованием ссылки прочтите, пожалуйста Пользовательское соглашение, а также как можно дольше оставайтесь на раздаче! Для того, чтобы скачать сам торрент-файл (который видит больше источников), а также для того, чтобы поблагодарить релизера, вам необходимо зарегистрироваться. Если регистрироваться лень - вы можете также попробовать скачать релиз по нашим партнерским ссылкам ниже.

[underverse.su].t19411.torrent
Трекер: Зарегистрирован   [ 24.08.2012 14:44 ]  

Статус: проверено (by garry at 24.08.2012 21:07)
Поблагодарили: 1 человек
Тип торрента: публичный - доступные источники с открытых трекеров: 
Размер: 3,71 GB (занимает 0,85 DVDR, для записи нужно 1 болванка DVDR/RW)
 
 


Последний раз редактировалось: nemos (24.08.2012 21:00), всего редактировалось 5 раз(а)

Black81 

04-Окт-2012 20:07

Как фильм ?

Яндекс.Метрика powered by Sphinx


В Н И М А Н И Е
Сайт не распространяет и не хранит электронные версии произведений, а лишь бесплатно и без коммерческой выгоды (не требуя взамен платы,
SMS и т.д.) предоставляет доступ к создаваемому пользователями каталогу ссылок на торрент-файлы, которые содержат только списки хеш-сумм.
Убедительная просьба с жалобами обращаться напрямую к пользователю, разместившему торрент файл.

Вверх