Loading...
Error

Дознаватель [1-24 серии из 24] (Андрей Коршунов, Инесса Юрченко) [2012 г., криминал, детектив, SATRip]

Статистика раздачи
Размер:  12,76 GB   |    Зарегистрирован:  2 года 5 месяцев   |    Скачан:  0 раз

Полного источника не было: 1 год 6 месяцев

Сидов:  0  |  0 KB/s  ]   Личеров:  0  |  0 KB/s  ]

* - сиды/пиры с внешних источников

   
 
Автор Сообщение

nemos Пол:Муж

18-Авг-2012 17:53


Год выпуска: 2012
Жанр: криминал, детектив
Страна: Россия
Режиссер: Андрей Коршунов, Инесса Юрченко
В ролях: Яков Шамшин, Егор Бакулин, Алексей Белозерцев, Роман Жилкин, Роман Притула, Руслан Мещанов, Евгений Антонов, Юрий Ермаков, Егор Будкевич, Борис Хасанов
Сюжет фильма:
Сериал рассказывает о работе следовательской группы РУВД, занимающейся раскрытием самых разнообразных преступлений — как на «земле», вместе с операми, так и в «высших сферах» бизнеса.

Главный герой, Александр Суворов, выпускник юридического факультета Университета (окончил после службы в армии) приходит работать дознавателем в РУВД. Александра воспринимают с иронией — он молод, «зелен», в РУВД работают опытные «волки» — опера и следователи, начальник — 50-летний полковник Тимофеев кажется грубым и жестким человеком.


Качество видео: SatRip

Продолжительность: ~00:47:00 x 24
Формат: AVI
Видео: XviD, 720 x 384, 1 495 kbps
Аудио: русский, оригинал, MP3 2.0, 128 kbps

Код:

E:\СКАЧКИ\С underverse\Дознаватель 2012\Doznavatelj.24.avi
   General
      Complete name : E:\СКАЧКИ\С underverse\Дознаватель 2012\Doznavatelj.24.avi
      Format : AVI
      Format/Info : Audio Video Interleave
      File size : 532 MiB
      Duration : 45mn 33s
      Overall bit rate : 1 633 Kbps
      Writing application : VirtualDubMod 1.5.10.2 (build 2540/release)
      Writing library : VirtualDub build 32507/release
   Video #0
      ID : 0
      Format : MPEG-4 Visual
      Format profile : Advanced Simple@L5
      Format settings, BVOP : Yes
      Format settings, QPel : No
      Format settings, GMC : No warppoints
      Format settings, Matrix : Default (MPEG)
      Muxing mode : Packed bitstream
      Codec ID : XVID
      Codec ID/Hint : XviD
      Duration : 45mn 33s
      Bit rate : 1 495 Kbps
      Width : 720 pixels
      Height : 384 pixels
      Display aspect ratio : 1.875
      Frame rate : 25.000 fps
      Color space : YUV
      Chroma subsampling : 4:2:0
      Bit depth : 8 bits
      Scan type : Progressive
      Bits/(Pixel*Frame) : 0.216
      Stream size : 487 MiB (92%)
      Writing library : XviD 1.2.1 (UTC 2008-12-04)
   Audio #1
      ID : 1
      Format : MPEG Audio
      Format version : Version 1
      Format profile : Layer 3
      Mode : Joint stereo
      Mode extension : MS Stereo
      Codec ID : 55
      Codec ID/Hint : MP3
      Duration : 45mn 33s
      Bit rate mode : Constant
      Bit rate : 128 Kbps
      Channel(s) : 2 channels
      Sampling rate : 48.0 KHz
      Stream size : 41.7 MiB (8%)
      Alignment : Aligned on interleaves
      Interleave, duration : 40 ms (1.00 video frame)
      Interleave, preload duration : 504 ms
      Writing library : LAME3.90.3
Семпл: http://multi-up.com/748363

picpicpicpicpicpic
Для увеличения картинки щелкните мышкой по превью

Этот торрент недоступен для скачивания без регистрации, однако доступен по публичной magnet-ссылке (источники с публичных трекеров). Перед использованием ссылки прочтите, пожалуйста Пользовательское соглашение, а также как можно дольше оставайтесь на раздаче! Для того, чтобы скачать сам торрент-файл (который видит больше источников), а также для того, чтобы поблагодарить релизера, вам необходимо зарегистрироваться. Если регистрироваться лень - вы можете также попробовать скачать релиз по нашим партнерским ссылкам ниже.

[underverse.su].t40859.torrent
Трекер: Зарегистрирован   [ 09.06.2014 12:25 ]  

Статус: проверено (by nemos at 09.06.2014 12:25)
Поблагодарили: 1 человек
Тип торрента: публичный - доступные источники с открытых трекеров: 
Размер: 12,76 GB (занимает 2,91 DVDR, для записи нужно 3 болванки DVDR/RW)
 
 
Похожие темы
Форум Тема Автор Торрент Отв. Посл. сооб.
xUSSR сериалы Дознаватель 2 (1-32 серия из 32) (Андрей Коршунов) [2013 г., детектив, криминал, SatRip] nemos
1 | 5

2 | 2090

6

13.05.2014 14:31



Последний раз редактировалось: nemos (06.11.2014 07:54), всего редактировалось 1 раз

nemos Пол:Муж

09-Июн-2014 12:26

Торр файл обновлён! Мультитрекерная раздача.

Яндекс.Метрика powered by Sphinx


В Н И М А Н И Е
Сайт не распространяет и не хранит электронные версии произведений, а лишь бесплатно и без коммерческой выгоды (не требуя взамен платы,
SMS и т.д.) предоставляет доступ к создаваемому пользователями каталогу ссылок на торрент-файлы, которые содержат только списки хеш-сумм.
Убедительная просьба с жалобами обращаться напрямую к пользователю, разместившему торрент файл.

Вверх