Loading...
Error

Золотой запас (1-24 из 24) (Мурад Алиев, Дмитрий Матов) [2012 г., боевик, драма, криминал, SATRip]

Статистика раздачи
Размер:  12,12 GB   |    Зарегистрирован:  4 года 3 месяца   |    Скачан:  15 раз

Полного источника не было: 2 года

Сидов:  0  |  0 KB/s  ]   Личеров:  0  |  0 KB/s  ]

* - сиды/пиры с внешних источников

   
 
Автор Сообщение

nemos Пол:Муж

18-Авг-2012 09:59

Золотой запас


Год выпуска: 2012
Жанр: боевик, драма, криминал
Страна: Россия
Режиссер: Мурад Алиев, Дмитрий Матов
В ролях: Михаил Мамаев, Лилия Мэй, Михаил Хмуров, Александр Зельский, Игорь Волков, Сейдулла Молдаханов, Екатерина Чебышева, Илья Оболонков, Андрей Харыбин, Роман Синицын
Сюжет фильма:
Капитан погранвойск в отставке Сергей Бронников возвращается в родной сибирский городок, чтобы осесть там навсегда. Его отец, геолог на пенсии, делится с сыном тайной. Оказывается, он нашел богатейшую золотую жилу! К несчастью, об этом узнает «крестный отец» всего города, владелец нелегального золотого рудника Мезенцев. Старый геолог умирает под пытками, а его сына похищают и увозят в тайгу на рудник, чтобы выпытать у него дорогу к золоту. Так Сергей становится одним из рабов на нелегальных рудниках — одним из тех, кого никто не ищет и чья жизнь ничего не стоит.

Все, что он успевает перед похищением, — это сообщить о смерти отца своему бывшему сослуживцу, офицеру ФСБ Стасу Шеремету. Тот тут же отправляется на помощь другу. Ему предстоит самому стать подозреваемым, попасть в розыск, исчезнуть и пройти через тайгу, чтобы найти и выручить бывшего товарища-однополчанина.


Качество видео: SatRip

Продолжительность: 00:41:55 х 24
Формат: AVI
Видео: XviD, 720 x 400, 1501 kbps
Аудио: русский, оригинал, MP3 2.0, 128 kbps

Код:

D:\СКАЧКИ-2\c NO NA MEиКИНОЗАЛ тв\Золотой запас.2012. SATRip\Zolotoj.Zapas.02.2012.SATRip.avi
   General
      Complete name : D:\СКАЧКИ-2\c NO NA MEиКИНОЗАЛ тв\Золотой запас.2012. SATRip\Zolotoj.Zapas.02.2012.SATRip.avi
      Format : AVI
      Format/Info : Audio Video Interleave
      File size : 486 MiB
      Duration : 41mn 27s
      Overall bit rate : 1 639 Kbps
      Writing library : VirtualDub build 32706/release
   Video #0
      ID : 0
      Format : MPEG-4 Visual
      Format profile : Advanced Simple@L5
      Format settings, BVOP : Yes
      Format settings, QPel : No
      Format settings, GMC : No warppoints
      Format settings, Matrix : Default (MPEG)
      Codec ID : XVID
      Codec ID/Hint : XviD
      Duration : 41mn 27s
      Bit rate : 1 501 Kbps
      Width : 720 pixels
      Height : 400 pixels
      Display aspect ratio : 16:9
      Frame rate : 25.000 fps
      Color space : YUV
      Chroma subsampling : 4:2:0
      Bit depth : 8 bits
      Scan type : Progressive
      Bits/(Pixel*Frame) : 0.208
      Stream size : 445 MiB (92%)
      Writing library : XviD 1.2.1 (UTC 2008-12-04)
   Audio #1
      ID : 1
      Format : MPEG Audio
      Format version : Version 1
      Format profile : Layer 3
      Mode : Joint stereo
      Mode extension : MS Stereo
      Codec ID : 55
      Codec ID/Hint : MP3
      Duration : 41mn 27s
      Bit rate mode : Constant
      Bit rate : 128 Kbps
      Channel(s) : 2 channels
      Sampling rate : 48.0 KHz
      Stream size : 38.0 MiB (8%)
      Alignment : Split accross interleaves
      Interleave, duration : 40 ms (1.00 video frame)
      Interleave, preload duration : 500 ms
Семпл: http://multi-up.com/748159

picpicpicpicpicpic
Для увеличения картинки щелкните мышкой по превью

Этот торрент недоступен для скачивания без регистрации, однако доступен по публичной magnet-ссылке (источники с публичных трекеров). Перед использованием ссылки прочтите, пожалуйста Пользовательское соглашение, а также как можно дольше оставайтесь на раздаче! Для того, чтобы скачать сам торрент-файл (который видит больше источников), а также для того, чтобы поблагодарить релизера, вам необходимо зарегистрироваться. Если регистрироваться лень - вы можете также попробовать скачать релиз по нашим партнерским ссылкам ниже.

[underverse.su].t19530.torrent
Трекер: Зарегистрирован   [ 30.08.2012 16:30 ]  

Статус: проверено (by garry at 30.08.2012 17:03)
Поблагодарили: 1 человек
Тип торрента: публичный - доступные источники с открытых трекеров: 
Размер: 12,12 GB (занимает 2,77 DVDR, для записи нужно 3 болванки DVDR/RW)
 
 


Последний раз редактировалось: nemos (06.11.2014 06:21), всего редактировалось 4 раз(а)

Яндекс.Метрика powered by Sphinx


В Н И М А Н И Е
Сайт не распространяет и не хранит электронные версии произведений, а лишь бесплатно и без коммерческой выгоды (не требуя взамен платы,
SMS и т.д.) предоставляет доступ к создаваемому пользователями каталогу ссылок на торрент-файлы, которые содержат только списки хеш-сумм.
Убедительная просьба с жалобами обращаться напрямую к пользователю, разместившему торрент файл.

Вверх