Loading...
Error

Железное небо / Iron Sky (Тимо Вуоренсола) [2012 г., фантастика, боевик, комедия, HDRip] (Rus, Eng) HQ Underverse

Статистика раздачи
Размер:  1,45 GB   |    Зарегистрирован:  4 года 3 месяца   |    Скачан:  65 раз

Полного источника не было: 17 дней

Сидов:  0  |  0 KB/s  ]   Личеров:  0  |  0 KB/s  ]

* - сиды/пиры с внешних источников

   
 
Автор Сообщение

HQ Underverse 

17-Авг-2012 12:32

Железное небо / Iron Sky


Год выпуска: 2012
Жанр: фантастика, боевик, комедия
Страна: Финляндия , Германия , Австралия
Режиссер: Тимо Вуоренсола
В ролях: Юлия Дитце, Пета Сержант, Удо Кир, Гёц Отто, Стефани Пол, Ким Джексон, Кристофер Кирби, Моника Госсманн, Джим Нобелок, Юки Ивамото
Сюжет фильма:
70 лет назад недобитые нацисты улетели на Луну. Теперь, когда их гигантский флот возмездия почти достроен, они решили устроить Земле новый блицкриг. Тем временем президент США готова на всё, чтобы пойти на второй срок — даже развязать в космосе войну за природные ресурсы; а тщеславный офицер Четвертого Рейха Клаус задумал предать фюрера и получить власть над Землёй в свои руки. Боевые цеппелины уже вышли на орбиту, земные города под прицелом. Похоже, мира хотят только двое: наивная учительница с Луны Ренате и бывший астронавт Джеймс Вашингтон.

  • Мировая премьера: 11 февраля 2012
  • Российская премьера: 5 июля 2012, «Utopia Pictures»

/
Качество видео: HDRip

Продолжительность: 01:32:33
Формат: avi
Видео: XviD, 720x304, 1785 kbps
Аудио #1: русский, дублированный [лицензия], AC3 5.1, 448 kbps
Аудио #2: английский, оригинал, AC3 5.1, 448 kbps (отдельным файлом: здесь)
Субтитры: внешние, SRT, русский (на narod.ru)

Код:

General
Complete name                    : Z:\Видео\HQ\Железное небо\Iron.Sky.2012.HDRip.XviD.AC3.Rus.D.HQ.Underverse.avi
Format                           : AVI
Format/Info                      : Audio Video Interleave
File size                        : 1.45 GiB
Duration                         : 1h 32mn
Overall bit rate                 : 2 243 Kbps
Writing application              : VirtualDubMod 1.5.10.2 (build 2542/release)
Writing library                  : VirtualDubMod build 2542/release

Video
ID                               : 0
Format                           : MPEG-4 Visual
Format profile                   : Streaming Video@L1
Format settings, BVOP            : Yes
Format settings, QPel            : No
Format settings, GMC             : No warppoints
Format settings, Matrix          : Custom
Muxing mode                      : Packed bitstream
Codec ID                         : XVID
Codec ID/Hint                    : XviD
Duration                         : 1h 32mn
Bit rate                         : 1 785 Kbps
Width                            : 720 pixels
Height                           : 304 pixels
Display aspect ratio             : 2.35
Frame rate                       : 24.000 fps
Resolution                       : 24 bits
Colorimetry                      : 4:2:0
Scan type                        : Progressive
Bits/(Pixel*Frame)               : 0.340
Stream size                      : 1.15 GiB (80%)
Writing library                  : XviD 64

Audio
ID                               : 1
Format                           : AC-3
Format/Info                      : Audio Coding 3
Codec ID                         : 2000
Duration                         : 1h 32mn
Bit rate mode                    : Constant
Bit rate                         : 448 Kbps
Channel(s)                       : 6 channels
Channel positions                : Front: L C R, Surround: L R, LFE
Sampling rate                    : 48.0 KHz
Video delay                      : 7s 700ms
Stream size                      : 297 MiB (20%)
Alignment                        : Split accross interleaves
Interleave, duration             : 42 ms (1.00 video frame)
Interleave, preload duration     : 500 ms

General
Complete name                    : Z:\Видео\HQ\Железное небо\Iron.Sky.2012.HDRip.XviD.AC3.Rus.D.HQ.Underverse.ENG.ac3
Format                           : AC-3
Format/Info                      : Audio Coding 3
File size                        : 297 MiB
Duration                         : 1h 32mn
Overall bit rate                 : 448 Kbps

Audio
Format                           : AC-3
Format/Info                      : Audio Coding 3
Duration                         : 1h 32mn
Bit rate mode                    : Constant
Bit rate                         : 448 Kbps
Channel(s)                       : 6 channels
Channel positions                : Front: L C R, Surround: L R, LFE
Sampling rate                    : 48.0 KHz
Stream size                      : 297 MiB (100%)

Семпл: http://multi-up.com/747782

Релиз группы:

picpicpic
Для увеличения картинки щелкните мышкой по превью

Этот торрент недоступен для скачивания без регистрации, однако доступен по публичной magnet-ссылке (источники с публичных трекеров). Перед использованием ссылки прочтите, пожалуйста Пользовательское соглашение, а также как можно дольше оставайтесь на раздаче! Для того, чтобы скачать сам торрент-файл (который видит больше источников), а также для того, чтобы поблагодарить релизера, вам необходимо зарегистрироваться. Если регистрироваться лень - вы можете также попробовать скачать релиз по нашим партнерским ссылкам ниже.

[underverse.su].t19296.torrent
Трекер: Зарегистрирован   [ 17.08.2012 12:32 ]  

Статус: проверено (by garry at 17.08.2012 12:35)
Поблагодарили: 2 человека
Тип торрента: публичный - доступные источники с открытых трекеров: 
Размер: 1,45 GB (занимает 1/3 DVDR, для записи нужно 1 болванка DVDR/RW)
 
 
Похожие темы
Форум Тема Автор Торрент Отв. Посл. сооб.
Зарубежное кино [DVDRip, Low-Res HDRip, и т.д.] Железное небо / Iron Sky (Тимо Вуоренсола / Timo Vuorensola) [2012 г., фантастика, боевик, комедия, BDRip-AVC] Garnett
16 | 0

0 | 378

6

11.09.2012 15:04

SergantTM Пол:Муж

18-Авг-2012 04:13

По описанию фильма - предлагается к просмотру какой-то бред, есть кто-уже посмотрел - стоит или не стоит тратить время на просмотр этого шедевра :)

Паукан Пол:Муж

18-Авг-2012 09:55

SergantTM
если нравится юмор про нацистов, негров, американскую политику и т.д. - то стоит :)

macs180670 Пол:Муж

18-Авг-2012 10:03

филим так сказать на один раз. :first move:

maddd Пол:Муж

18-Авг-2012 19:44

Мде...откуда у фильма рейтинг 6 ? :crazy:
Твердая 2
Смотрел и никак не мог понять: о чем фильм ? Может кто-то сможет мне объяснить ?
Особого юмора в фильме тоже не видел
ИМХО, тупо потраченное время

Паукан Пол:Муж

18-Авг-2012 20:22

maddd писал(а):

о чем фильм ?
о современных политических амбициях сверхдержав, чуток приправленными сатирой )

Яндекс.Метрика powered by Sphinx


В Н И М А Н И Е
Сайт не распространяет и не хранит электронные версии произведений, а лишь бесплатно и без коммерческой выгоды (не требуя взамен платы,
SMS и т.д.) предоставляет доступ к создаваемому пользователями каталогу ссылок на торрент-файлы, которые содержат только списки хеш-сумм.
Убедительная просьба с жалобами обращаться напрямую к пользователю, разместившему торрент файл.

Вверх