Loading...
Error

День выборов [полная версия] (Олег Фомин) [2007 г., комедия, TVRip]

Статистика раздачи
Размер:  1,7 GB   |    Зарегистрирован:  4 года 8 месяцев   |    Скачан:  99 раз

Полного источника не было: 21 час

Сидов:  0  |  0 KB/s  ]   Личеров:  0  |  0 KB/s  ]

* - сиды/пиры с внешних источников

   
 
Автор Сообщение

garry Пол:Муж

16-Авг-2012 20:10

День выборов


Год выпуска: 2007
Жанр: комедия
Страна: Россия
Режиссер: Олег Фомин
В ролях: Леонид Барац, Ростислав Хаит, Александр Демидов, Камиль Ларин, Василий Уткин, Михаил Козырев, Михаил Ефремов, Нонна Гришаева, Максим Виторган, Александр Семчев
Сюжет фильма:
Руководитель одной из самых рейтинговых радиостанций страны получает заказ от загадочного клиента. Необходимо «раскрутить» на региональных выборах своего кандидата, отобрать голоса у конкурентов и тем самым повлиять на избрание нового губернатора. За выполнение задачи государственной важности берутся лучшие умы радиостанции.

  • Российская премьера: 18 октября 2007, «Каропрокат»

Качество видео: TVRip

Продолжительность: 02:36:26
Формат: avi
Видео: DivX 5, 720x576, 780 kbps
Аудио: русский, оригинал, Microsoft 1, 768 kbps

Код:

General
Complete name                    : D:\Video\Movies\Den_Viborov.avi.avi
Format                           : AVI
Format/Info                      : Audio Video Interleave
File size                        : 1.70 GiB
Duration                         : 2h 36mn
Overall bit rate                 : 1 558 Kbps
Writing library                  : VirtualDub-MPEG2 build 24586/release

Video
ID                               : 0
Format                           : MPEG-4 Visual
Format settings, BVOP            : Yes
Format settings, QPel            : No
Format settings, GMC             : No warppoints
Format settings, Matrix          : Default (H.263)
Muxing mode                      : Packed bitstream
Codec ID                         : DX50
Codec ID/Hint                    : DivX 5
Duration                         : 2h 36mn
Bit rate                         : 780 Kbps
Width                            : 720 pixels
Height                           : 576 pixels
Display aspect ratio             : 5/4
Frame rate                       : 25.000 fps
Standard                         : PAL
Resolution                       : 24 bits
Colorimetry                      : 4:2:0
Scan type                        : Progressive
Bits/(Pixel*Frame)               : 0.075
Stream size                      : 873 MiB (50%)
Writing library                  : DivX 6.8.0 (UTC 2007-12-04)

Audio
Format                           : PCM
Format settings, Endianness      : Little
Format settings, Sign            : Unsigned
Codec ID                         : 1
Codec ID/Hint                    : Microsoft
Duration                         : 2h 36mn
Bit rate mode                    : Constant
Bit rate                         : 768 Kbps
Channel(s)                       : 1 channel
Sampling rate                    : 48.0 KHz
Resolution                       : 16 bits
Stream size                      : 859 MiB (49%)
Interleave, duration             : 40 ms (1.00 video frame)
Interleave, preload duration     : 500 ms

Семпл: http://multi-up.com/139513

picpicpic
Для увеличения картинки щелкните мышкой по превью

Этот торрент недоступен для скачивания без регистрации, однако доступен по публичной magnet-ссылке (источники с публичных трекеров). Перед использованием ссылки прочтите, пожалуйста Пользовательское соглашение, а также как можно дольше оставайтесь на раздаче! Для того, чтобы скачать сам торрент-файл (который видит больше источников), а также для того, чтобы поблагодарить релизера, вам необходимо зарегистрироваться. Если регистрироваться лень - вы можете также попробовать скачать релиз по нашим партнерским ссылкам ниже.

[underverse.su].t19271.torrent
Трекер: Зарегистрирован   [ 16.08.2012 20:10 ]  

Статус: проверено (by garry at 16.08.2012 20:11)
Поблагодарили: 2 человека
Тип торрента: публичный - доступные источники с открытых трекеров: 
Размер: 1,7 GB (занимает 0,39 DVDR, для записи нужно 1 болванка DVDR/RW)
 
 
Похожие темы
Форум Тема Автор Торрент Отв. Посл. сооб.
T Наше кино [DVDRip, Low-Res HDRip, и т.д.] День выборов 2 (Александр Баршак) [2016 г., комедия, WEBRip] makkol
235 | 1

0 | 579

47

22.03.2016 10:35

T Наше кино [DVDRip, Low-Res HDRip, и т.д.] День выборов 2 (Александр Баршак) [2016 г., комедия, WEB-DLRip] makkol
7 | 3

0 | 784

93

24.03.2016 23:34

Наше кино [DVD / HDDVD / BD / Remux] День выборов (Олег Фомин) [2007 г.,комедия, DVD-9] Bratok
0 | 0

2 | 1992

1

28.02.2010 09:56

T Наше кино [HDDVDRip / BDRip / WEB-DL / HDTV 1080/720р] День выборов 2 (Александр Баршак) [2016 г., комедия, WEBRip 720p] makkol
53 | 0

1 | 933

98

22.03.2016 16:06

T Наше кино [HDDVDRip / BDRip / WEB-DL / HDTV 1080/720р] День выборов 2 (Александр Баршак) [2016 г., комедия, WEB-DL 1080p] makkol
26 | 0

0 | 1005

102

24.03.2016 23:47

T Наше кино [HDDVDRip / BDRip / WEB-DL / HDTV 1080/720р] День выборов 2 (Александр Баршак) [2016 г., комедия, WEB-DL 720p] makkol
72 | 0

0 | 757

52

25.03.2016 12:48

T Новинки кино [CAMRip, TS, DVDScr, WP, TC] День выборов 2 (Александр Баршак) [2016 г., комедия, CAMRip] makkol
1 | 0

1 | 1897

140

02.03.2016 08:57


Яндекс.Метрика powered by Sphinx


В Н И М А Н И Е
Сайт не распространяет и не хранит электронные версии произведений, а лишь бесплатно и без коммерческой выгоды (не требуя взамен платы,
SMS и т.д.) предоставляет доступ к создаваемому пользователями каталогу ссылок на торрент-файлы, которые содержат только списки хеш-сумм.
Убедительная просьба с жалобами обращаться напрямую к пользователю, разместившему торрент файл.

Вверх