Loading...
Error

Дневники мотылька / The Moth Diaries (Мэри Хэррон) [2011 г., ужасы, драма, HDRip]

Статистика раздачи
Размер:  1,37 GB   |    Зарегистрирован:  4 года 3 месяца   |    Скачан:  10 раз

Полного источника не было: 7 месяцев

Сидов:  0  |  0 KB/s  ]   Личеров:  0  |  0 KB/s  ]

* - сиды/пиры с внешних источников

   
 
Автор Сообщение

RG NewCinema 

16-Авг-2012 10:06

Дневники мотылька / The Moth Diaries


Год выпуска: 2011
Жанр: ужасы, драма
Страна: Канада , Ирландия
Режиссер: Мэри Хэррон
В ролях: Скотт Спидман, Энн Дэй-Джонс, Лили Коул, Сара Болджер, Сара Гадон, Валери Тиан, Джуди Парфитт, Мелисса Фарман, Гия Сандху
Сюжет фильма:
В центре событий элитная школа-интернат для девочек, в которой учится Люси Блэйк. Она ведет дневник, куда записывает все самое сокровенное. В интернате Люси знакомится с девушкой по имени Эрнесса. Эрнесса таинственна, у нее бледная кожа и гипнотический взгляд. Про нее ходят темные слухи, о том, что она притягивает к себе беды. Вскоре фантазии и реальность начинают смешиваться…

  • Мировая премьера: 6 сентября 2011

/
Качество видео: HDRip

Продолжительность: 01:22:18
Формат: AVI
Видео: XviD, 720x384, 1983 kbps
Аудио #1: русский, многоголосый закадровый [любительский], AC3 2.0, 192 kbps
Аудио #2: английский, оригинал, AC3 2.0, 192 kbps

Код:

General
Complete name                            : D:\Фильмы\The.Moth.Diaries.2011.L.HDRIP.avi
Format                                   : AVI
Format/Info                              : Audio Video Interleave
File size                                : 1.35 GiB
Duration                                 : 1h 22mn
Overall bit rate                         : 2 344 Kbps
Writing application                      : VirtualDubMod 1.5.10.3 | www.virtualdub-fr.org || (build 2550/release)
Writing library                          : VirtualDubMod build 2550/release

Video
ID                                       : 0
Format                                   : MPEG-4 Visual
Format profile                           : Advanced Simple@L5
Format settings, BVOP                    : 2
Format settings, QPel                    : No
Format settings, GMC                     : No warppoints
Format settings, Matrix                  : Default (H.263)
Muxing mode                              : Packed bitstream
Codec ID                                 : XVID
Codec ID/Hint                            : XviD
Duration                                 : 1h 22mn
Bit rate                                 : 1 698 Kbps
Width                                    : 720 pixels
Height                                   : 384 pixels
Display aspect ratio                     : 1.85:1
Frame rate                               : 25.000 fps
Color space                              : YUV
Chroma subsampling                       : 4:2:0
Bit depth                                : 8 bits
Scan type                                : Progressive
Compression mode                         : Lossy
Bits/(Pixel*Frame)                       : 0.246
Stream size                              : 999 MiB (72%)
Writing library                          : XviD 64

Audio #1
ID                                       : 1
Format                                   : AC-3
Format/Info                              : Audio Coding 3
Mode extension                           : CM (complete main)
Format settings, Endianness              : Big
Codec ID                                 : 2000
Duration                                 : 1h 19mn
Bit rate mode                            : Constant
Bit rate                                 : 256 Kbps
Channel(s)                               : 2 channels
Channel positions                        : Front: L R
Sampling rate                            : 48.0 KHz
Bit depth                                : 16 bits
Compression mode                         : Lossy
Stream size                              : 146 MiB (11%)
Alignment                                : Split accross interleaves
Interleave, duration                     : 41 ms (1.03 video frame)
Interleave, preload duration             : 500 ms

Audio #2
ID                                       : 2
Format                                   : AC-3
Format/Info                              : Audio Coding 3
Mode extension                           : CM (complete main)
Format settings, Endianness              : Big
Codec ID                                 : 2000
Duration                                 : 1h 22mn
Bit rate mode                            : Constant
Bit rate                                 : 384 Kbps
Channel(s)                               : 6 channels
Channel positions                        : Front: L C R, Side: L R, LFE
Sampling rate                            : 48.0 KHz
Bit depth                                : 16 bits
Compression mode                         : Lossy
Stream size                              : 226 MiB (16%)
Alignment                                : Split accross interleaves
Interleave, duration                     : 40 ms (1.00 video frame)
Interleave, preload duration             : 500 ms
Семпл: http://multi-up.com/747138

picpicpic
Для увеличения картинки щелкните мышкой по превью

Этот торрент недоступен для скачивания без регистрации, однако доступен по публичной magnet-ссылке (источники с публичных трекеров). Перед использованием ссылки прочтите, пожалуйста Пользовательское соглашение, а также как можно дольше оставайтесь на раздаче! Для того, чтобы скачать сам торрент-файл (который видит больше источников), а также для того, чтобы поблагодарить релизера, вам необходимо зарегистрироваться. Если регистрироваться лень - вы можете также попробовать скачать релиз по нашим партнерским ссылкам ниже.

[underverse.su].t19251.torrent
Трекер: Зарегистрирован   [ 16.08.2012 10:06 ]  

Статус: проверено (by Паукан at 16.08.2012 10:18)
Поблагодарили: пока никто не поблагодарил...
Тип торрента: публичный - доступные источники с открытых трекеров: 
Размер: 1,37 GB (занимает 0,31 DVDR, для записи нужно 1 болванка DVDR/RW)
 
 

Яндекс.Метрика powered by Sphinx


В Н И М А Н И Е
Сайт не распространяет и не хранит электронные версии произведений, а лишь бесплатно и без коммерческой выгоды (не требуя взамен платы,
SMS и т.д.) предоставляет доступ к создаваемому пользователями каталогу ссылок на торрент-файлы, которые содержат только списки хеш-сумм.
Убедительная просьба с жалобами обращаться напрямую к пользователю, разместившему торрент файл.

Вверх