Loading...
Error

Ворон / The Raven (Джеймс МакТиг) [2012 г., триллер, детектив, HDRip] (Rus, Ukr, Eng) HQ Underverse

Статистика раздачи
Размер:  1,45 GB   |    Зарегистрирован:  4 года 3 месяца   |    Скачан:  25 раз
Сидов:  1  |  0 KB/s  ]   Личеров:  0  |  0 KB/s  ]

* - сиды/пиры с внешних источников

   
 
Автор Сообщение

HQ Underverse 

15-Авг-2012 18:12

Ворон / The Raven


Год выпуска: 2012
Жанр: триллер, детектив
Страна: США , Испания , Венгрия
Режиссер: Джеймс МакТиг
В ролях: Джон Кьюсак, Элис Ив, Люк Эванс, Брендан Глисон, Кевин МакНэлли, Оливер Джексон-Коэн, Джимми Юилл, Сэм Хэзелдайн, Пэм Феррис, Брендан Койл
Сюжет фильма:
Рассказ о последних днях жизни Эдгара Аллана По. Знаменитый поэт преследует серийного убийцу, чьи преступления очень похожи на те, что описаны в его произведениях.

  • Мировая премьера: 9 марта 2012
  • Российская премьера: 12 апреля 2012, «Top Film Distribution»

|
Качество видео: HDRip

Продолжительность: 01:50:52
Формат: avi
Видео: XviD, 720x304, 1481 kbps
Аудио #1: русский, дублированный [лицензия], AC3 5.1, 384 kbps
Аудио #2: украинский, многоголосый закадровый [профессиональный], AC3 5.1, 384 kbps (отдельным файлом: здесь)
Аудио #3: английский, оригинал, AC3 5.1, 384 kbps (отдельным файлом: здесь)
Субтитры #1: внешние, SRT, английский (на narod.ru)
Субтитры #2: внешние, SRT, русский (на narod.ru)

Код:

General
Complete name                    : Z:\Видео\HQ\Ворон\The.Raven.2012.HDRip.XviD.AC3.Rus.D.HQ.Underverse.avi
Format                           : AVI
Format/Info                      : Audio Video Interleave
File size                        : 1.45 GiB
Duration                         : 1h 50mn
Overall bit rate                 : 1 875 Kbps
Writing application              : VirtualDubMod 1.5.10.2 (build 2542/release)
Writing library                  : VirtualDubMod build 2542/release

Video
ID                               : 0
Format                           : MPEG-4 Visual
Format profile                   : Streaming Video@L1
Format settings, BVOP            : Yes
Format settings, QPel            : No
Format settings, GMC             : No warppoints
Format settings, Matrix          : Custom
Muxing mode                      : Packed bitstream
Codec ID                         : XVID
Codec ID/Hint                    : XviD
Duration                         : 1h 50mn
Bit rate                         : 1 481 Kbps
Width                            : 720 pixels
Height                           : 304 pixels
Display aspect ratio             : 2.35
Frame rate                       : 23.976 fps
Resolution                       : 24 bits
Colorimetry                      : 4:2:0
Scan type                        : Progressive
Bits/(Pixel*Frame)               : 0.282
Stream size                      : 1.15 GiB (79%)
Writing library                  : XviD 64

Audio
ID                               : 1
Format                           : AC-3
Format/Info                      : Audio Coding 3
Codec ID                         : 2000
Duration                         : 1h 50mn
Bit rate mode                    : Constant
Bit rate                         : 384 Kbps
Channel(s)                       : 6 channels
Channel positions                : Front: L C R, Surround: L R, LFE
Sampling rate                    : 48.0 KHz
Stream size                      : 305 MiB (20%)
Alignment                        : Split accross interleaves
Interleave, duration             : 42 ms (1.00 video frame)
Interleave, preload duration     : 500 ms

General
Complete name                    : Z:\Видео\HQ\Ворон\The.Raven.2012.HDRip.XviD.AC3.Rus.D.HQ.Underverse.ENG.ac3
Format                           : AC-3
Format/Info                      : Audio Coding 3
File size                        : 305 MiB
Duration                         : 1h 50mn
Overall bit rate                 : 384 Kbps

Audio
Format                           : AC-3
Format/Info                      : Audio Coding 3
Duration                         : 1h 50mn
Bit rate mode                    : Constant
Bit rate                         : 384 Kbps
Channel(s)                       : 6 channels
Channel positions                : Front: L C R, Surround: L R, LFE
Sampling rate                    : 48.0 KHz
Stream size                      : 305 MiB (100%)

General
Complete name                    : Z:\Видео\HQ\Ворон\The.Raven.2012.HDRip.XviD.AC3.Rus.D.HQ.Underverse.UKR.ac3
Format                           : AC-3
Format/Info                      : Audio Coding 3
File size                        : 305 MiB
Duration                         : 1h 50mn
Overall bit rate                 : 384 Kbps

Audio
Format                           : AC-3
Format/Info                      : Audio Coding 3
Duration                         : 1h 50mn
Bit rate mode                    : Constant
Bit rate                         : 384 Kbps
Channel(s)                       : 6 channels
Channel positions                : Front: L C R, Surround: L R, LFE
Sampling rate                    : 48.0 KHz
Stream size                      : 305 MiB (100%)

Семпл: http://multi-up.com/746984

Релиз группы:

picpicpic
Для увеличения картинки щелкните мышкой по превью

Этот торрент недоступен для скачивания без регистрации, однако доступен по публичной magnet-ссылке (источники с публичных трекеров). Перед использованием ссылки прочтите, пожалуйста Пользовательское соглашение, а также как можно дольше оставайтесь на раздаче! Для того, чтобы скачать сам торрент-файл (который видит больше источников), а также для того, чтобы поблагодарить релизера, вам необходимо зарегистрироваться. Если регистрироваться лень - вы можете также попробовать скачать релиз по нашим партнерским ссылкам ниже.

[underverse.su].t19243.torrent
Трекер: Зарегистрирован   [ 15.08.2012 18:12 ]  

Статус: проверено (by Паукан at 15.08.2012 19:04)
Поблагодарили: 1 человек
Тип торрента: публичный - доступные источники с открытых трекеров: 
Размер: 1,45 GB (занимает 1/3 DVDR, для записи нужно 1 болванка DVDR/RW)
 
 
Похожие темы
Форум Тема Автор Торрент Отв. Посл. сооб.
Зарубежное кино [DVDRip, Low-Res HDRip, и т.д.] Ворон / The Raven (Джеймс МакТиг) [2012 г., триллер, детектив, HDRip] RG NewCinema
0 | 0

1 | 619

37

16.07.2012 15:30

Зарубежное кино [DVDRip, Low-Res HDRip, и т.д.] Ворон / The Crow (Алекс Пройас / Alex Proyas) [1994 г., фэнтези, боевик, триллер, BDRip-AVC] MVO 90ytr90
68 | 3

0 | 175

2

15.11.2016 16:39

Зарубежное кино [DVDRip, Low-Res HDRip, и т.д.] Ворон / The Crow (Алекс Пройас / Alex Proyas) [1994 г., фэнтези, боевик, триллер, BDRip] MVO 90ytr90
24 | 0

0 | 173

0

15.11.2016 16:29

Зарубежное кино [DVDRip, Low-Res HDRip, и т.д.] Ворон / The Raven (Джеймс МакТиг) [2012 г., Триллер, Детектив, HDRip-AVC] Dub + Original Чертёнок
3 | 0

0 | 397

8

10.02.2013 20:25

Зарубежное кино [DVDRip, Low-Res HDRip, и т.д.] Ворон / The Raven (Джеймс МакТиг / James McTeigue) [2012 г., Триллер, Детектив, BDRip] Dub + Eng 90ytr90
27 | 0

0 | 965

14

10.02.2013 17:08

Зарубежное кино [HDDVDRip / BDRip / WEB-DL / HDTV 1080/720р] Ворон / The Crow (Алекс Пройас / Alex Proyas) [1994 г., фэнтези, боевик, триллер, BDRip 1080p] MVO 90ytr90
29 | 3

0 | 159

0

15.11.2016 16:34


Яндекс.Метрика powered by Sphinx


В Н И М А Н И Е
Сайт не распространяет и не хранит электронные версии произведений, а лишь бесплатно и без коммерческой выгоды (не требуя взамен платы,
SMS и т.д.) предоставляет доступ к создаваемому пользователями каталогу ссылок на торрент-файлы, которые содержат только списки хеш-сумм.
Убедительная просьба с жалобами обращаться напрямую к пользователю, разместившему торрент файл.

Вверх