Loading...
Error

Охотники на драконов [3-4 части] / Chasseurs de dragons (Артур Квак) [2004 г., Мультфильм, DVDRip]

Статистика раздачи
Размер:  2,16 GB   |    Зарегистрирован:  4 года 3 месяца   |    Скачан:  3 раза

Полного источника не было: 3 года 4 месяца

Сидов:  0  |  0 KB/s  ]   Личеров:  0  |  0 KB/s  ]

* - сиды/пиры с внешних источников

   
 
Автор Сообщение

ivansk222 

14-Авг-2012 09:46

Охотники на драконов [3-4 части] / Chasseurs de dragons


Год выпуска: 2004
Жанр: Мультфильм
Сезон: 3-4
Количество серий: 13
Страна: Франция
Режиссер: Артур Квак
Сюжет фильма:
Мультфильм рассказывает о приключениях двух бывших воспитанников сиротского приюта Лиан-Чу и Гви́здо[1], которые зарабатывают себе на жизнь, охотясь на мутировавших созданий всевозможных форм и размеров. Последних называют драконами, так как они регулярно ставят под угрозу мирную жизнь людей. Ранее бездомные, друзья бронируют комнату в гостинице «Храпящий дракон», представляющейся, как таверна. Постоянно попадают в непростые жизненные ситуации. Мир, в котором проживают герои, требует от них постоянной бдительности, так как очень необычен: его составляют разрозненные острова и обломки, живописно парящие в пространстве. Для преодоления значительных расстояний охотники используют небольшой летательный аппарат «Святой Георгий».

В мультсериале отсутствует пафос, присущий многим фильмам в жанре фэнтези. Зато всегда имеют место справедливые стечения обстоятельств в условиях того, что герои часто терпят финансовые неудачи, несмотря на проделанную работу.
Часть 3:
1. А теперь не смотри
2. Незванные гости
3. Битва с конкурентом
4. Гланды Мимикара
5. Ради награды
6. Сиротский приют

Часть 4:
1. Детская игра
2. Каливабльская вода
3. Кто же потерял свою голову
4. Что только не делает любовь
5. Предъявите вашу лицензию
6. Прекрасный принц
7. Семейные ценности

Качество видео: DVDRip
Видео: AVI, XviD, 512х384 (4/3), 864Кб/с
Аудио: Dolby AC3, 2 канала, 192 Кб/с, 48КГц
Перевод: Русский профессиональный дубляж
Video
ID : 0
Format : MPEG-4 Visual
Format profile : Advanced Simple@L5
Format settings, BVOP : 1
Format settings, QPel : No
Format settings, GMC : No warppoints
Format settings, Matrix : Custom
Codec ID : XVID
Codec ID/Hint : XviD
Duration : 2h 12mn
Bit rate : 832 Kbps
Width : 528 pixels
Height : 400 pixels
Display aspect ratio : 4:3
Frame rate : 25.000 fps
Color space : YUV
Chroma subsampling : 4:2:0
Bit depth : 8 bits
Scan type : Progressive
Compression mode : Lossy
Bits/(Pixel*Frame) : 0.158
Stream size : 788 MiB (80%)
Writing library : XviD 1.2.0.dev47 (UTC 2006-11-01)

Audio
ID : 1
Format : AC-3
Format/Info : Audio Coding 3
Mode extension : CM (complete main)
Codec ID : 2000
Duration : 2h 12mn
Bit rate mode : Constant
Bit rate : 192 Kbps
Channel(s) : 2 channels
Channel positions : Front: L R
Sampling rate : 48.0 KHz
Bit depth : 16 bits
Compression mode : Lossy
Delay relative to video : 24ms
Stream size : 182 MiB (19%)
Alignment : Split accross interleaves
Interleave, duration : 40 ms (1.00 video frame)
Interleave, preload duration : 500 ms
picpicpicpic
Для увеличения картинки щелкните мышкой по превью

Этот торрент недоступен для скачивания без регистрации, однако доступен по публичной magnet-ссылке (источники с публичных трекеров). Перед использованием ссылки прочтите, пожалуйста Пользовательское соглашение, а также как можно дольше оставайтесь на раздаче! Для того, чтобы скачать сам торрент-файл (который видит больше источников), а также для того, чтобы поблагодарить релизера, вам необходимо зарегистрироваться. Если регистрироваться лень - вы можете также попробовать скачать релиз по нашим партнерским ссылкам ниже.

[underverse.su].t19204.torrent
Трекер: Зарегистрирован   [ 14.08.2012 09:46 ]  

Статус: проверено (by Паукан at 14.08.2012 19:19)
Поблагодарили: пока никто не поблагодарил...
Тип торрента: публичный - доступные источники с открытых трекеров: 
Размер: 2,16 GB (занимает 0,49 DVDR, для записи нужно 1 болванка DVDR/RW)
 
 
Похожие темы
Форум Тема Автор Торрент Отв. Посл. сооб.
Зарубежное кино [DVDRip, Low-Res HDRip, и т.д.] Охотники на гангстеров / Gangster Squad (Рубен Флейшер / Ruben Fleischer) [2013 г., Боевик, триллер, драма, криминал, HDRip] Dub Gaarochi
11 | 0

3 | 1131

52

10.04.2013 09:23

Зарубежное кино [DVDRip, Low-Res HDRip, и т.д.] Охотники на гангстеров / Gangster Squad (Рубен Флейшер / Ruben Fleischer) [2013 г., HDRip, Боевик, триллер, драма, криминал] Dub + Original Gaarochi
0 | 0

3 | 636

24

07.04.2013 13:23

Зарубежное кино [DVDRip, Low-Res HDRip, и т.д.] Охотники на гангстеров / Gangster Squad (Рубен Флейшер) [2013 г., боевик, триллер, драма, криминал, HDRip] Dub + Original Чертёнок
50 | 1

0 | 1300

68

25.04.2013 10:44

Зарубежное кино [DVDRip, Low-Res HDRip, и т.д.] Охотники на гангстеров / Gangster Squad (Рубен Флейшер / Ruben Fleischer) [2013 г., боевик, триллер, драма, криминал, BDRip-AVC] Dub + Eng 90ytr90
1 | 0

0 | 1169

33

25.04.2013 17:15

Зарубежное кино [DVDRip, Low-Res HDRip, и т.д.] Охотники на гангстеров / Gangster Squad (Рубен Флейшер / Ruben Fleischer) [2013, Боевик, триллер, драма, криминал, BDRip] Dub Garnett
2 | 0

0 | 534

18

26.04.2013 16:37

Зарубежное кино [DVDRip, Low-Res HDRip, и т.д.] Охотники на гангстеров / Gangster Squad (Рубен Флейшер / Ruben Fleischer) [2013 г., боевик, триллер, драма, криминал, BDRip] Dub + Eng 90ytr90
0 | 0

0 | 688

22

28.04.2013 15:48

Зарубежное кино [DVDRip, Low-Res HDRip, и т.д.] Охотники на ведьм / Hansel & Gretel: Witch Hunters (Томми Виркола / Tommy Wirkola) [2013 г., ужасы, фэнтези, боевик, BDRip] Dub + Original Gaarochi
2 | 0

0 | 1547

58

06.06.2013 15:04

Зарубежное кино [DVDRip, Low-Res HDRip, и т.д.] Охотники на ведьм / Hansel & Gretel: Witch Hunters (Томми Виркола) [2013 г., ужасы, фэнтези, боевик, BDRip] Dub [UNRATED] Паукан
6 | 0

0 | 840

23

23.08.2013 22:25

Зарубежное кино [DVDRip, Low-Res HDRip, и т.д.] Охотники на ведьм / Hansel and Gretel: Witch Hunters (Томми Виркола / Tommy Wirkola) [2013 г., ужасы, фэнтези, боевик, BDRip] [Unrated Cut] AVO (А.Гаврилов) 90ytr90
0 | 0

0 | 1222

26

16.09.2013 15:31

T Зарубежное кино [DVDRip, Low-Res HDRip, и т.д.] Охотники на демонов / Hellbenders (Дж.Т. Петти) [2012 г., комедия, ужасы, триллер, WEB-DLRip] Dub (чистый звук) + Original 90ytr90
0 | 1

0 | 1737

44

03.12.2013 17:19

ezhikov 

01-Окт-2012 08:49

Отличный мультик. Cпасибо!

fabian Пол:Муж

12-Ноя-2012 19:16

:) Класс спасибо

Яндекс.Метрика powered by Sphinx


В Н И М А Н И Е
Сайт не распространяет и не хранит электронные версии произведений, а лишь бесплатно и без коммерческой выгоды (не требуя взамен платы,
SMS и т.д.) предоставляет доступ к создаваемому пользователями каталогу ссылок на торрент-файлы, которые содержат только списки хеш-сумм.
Убедительная просьба с жалобами обращаться напрямую к пользователю, разместившему торрент файл.

Вверх