Loading...
Error

Охотники на драконов [1-2 части] / Chasseurs de dragons (Артур Квак) [2004 г., Мультфильм, DVDRip]

Статистика раздачи
Размер:  1,95 GB   |    Зарегистрирован:  4 года 8 месяцев   |    Скачан:  5 раз

Полного источника не было: 3 года 9 месяцев

Сидов:  0  |  0 KB/s  ]   Личеров:  0  |  0 KB/s  ]

* - сиды/пиры с внешних источников

   
 
Автор Сообщение

ivansk222 

14-Авг-2012 09:22

Охотники на драконов [1-2 части] / Chasseurs de dragons


Год выпуска: 2004
Жанр: Мультфильм
Сезон: 1-2
Количество серий: 13
Страна: Франция
Режиссер: Артур Квак
Сюжет фильма:
Мультфильм рассказывает о приключениях двух бывших воспитанников сиротского приюта Лиан-Чу и Гви́здо[1], которые зарабатывают себе на жизнь, охотясь на мутировавших созданий всевозможных форм и размеров. Последних называют драконами, так как они регулярно ставят под угрозу мирную жизнь людей. Ранее бездомные, друзья бронируют комнату в гостинице «Храпящий дракон», представляющейся, как таверна. Постоянно попадают в непростые жизненные ситуации. Мир, в котором проживают герои, требует от них постоянной бдительности, так как очень необычен: его составляют разрозненные острова и обломки, живописно парящие в пространстве. Для преодоления значительных расстояний охотники используют небольшой летательный аппарат «Святой Георгий».

В мультсериале отсутствует пафос, присущий многим фильмам в жанре фэнтези. Зато всегда имеют место справедливые стечения обстоятельств в условиях того, что герои часто терпят финансовые неудачи, несмотря на проделанную работу.
Часть 1
1. Дракон это я
2. Это драконья жизнь
3. Напрасные поиски Зории
4. Возвращение Роджера
5. Небольшая неурядица в прерии
6. Остров туманов

Часть 2
1. Кулак овощей
2. Поступь мертвого дракона
3. Дракон с крайнего севера
4. Билли крепкий орешек
5. Нет ничего лучше родного дома
6. Странный вкус какамака
7. Слияние трех лун

Качество видео: DVDRip
Видео: AVI, XviD, 512х384 (4/3), 864 Кб/с
Аудио: Dolby AC3, 2 канала, 192 Кб/с, 48КГц
Перевод: Русский профессиональный дубляж
Video
ID : 0
Format : MPEG-4 Visual
Format profile : Advanced Simple@L5
Format settings, BVOP : 1
Format settings, QPel : No
Format settings, GMC : No warppoints
Format settings, Matrix : Custom
Codec ID : XVID
Codec ID/Hint : XviD
Duration : 2h 13mn
Bit rate : 854 Kbps
Width : 512 pixels
Height : 384 pixels
Display aspect ratio : 4:3
Frame rate : 25.000 fps
Color space : YUV
Chroma subsampling : 4:2:0
Bit depth : 8 bits
Scan type : Progressive
Compression mode : Lossy
Bits/(Pixel*Frame) : 0.174
Stream size : 815 MiB (81%)
Writing library : XviD 1.2.0.dev47 (UTC 2006-11-01)

Audio
ID : 1
Format : AC-3
Format/Info : Audio Coding 3
Mode extension : CM (complete main)
Codec ID : 2000
Duration : 2h 13mn
Bit rate mode : Constant
Bit rate : 192 Kbps
Channel(s) : 2 channels
Channel positions : Front: L R
Sampling rate : 48.0 KHz
Bit depth : 16 bits
Compression mode : Lossy
Stream size : 183 MiB (18%)
Alignment : Split accross interleaves
Interleave, duration : 40 ms (1.00 video frame)
Interleave, preload duration : 500 ms
picpicpicpic
Для увеличения картинки щелкните мышкой по превью

Этот торрент недоступен для скачивания без регистрации, однако доступен по публичной magnet-ссылке (источники с публичных трекеров). Перед использованием ссылки прочтите, пожалуйста Пользовательское соглашение, а также как можно дольше оставайтесь на раздаче! Для того, чтобы скачать сам торрент-файл (который видит больше источников), а также для того, чтобы поблагодарить релизера, вам необходимо зарегистрироваться. Если регистрироваться лень - вы можете также попробовать скачать релиз по нашим партнерским ссылкам ниже.

[underverse.su].t19203.torrent
Трекер: Зарегистрирован   [ 14.08.2012 09:22 ]  

Статус: проверено (by Паукан at 14.08.2012 12:35)
Поблагодарили: 1 человек
Тип торрента: публичный - доступные источники с открытых трекеров: 
Размер: 1,95 GB (занимает 0,45 DVDR, для записи нужно 1 болванка DVDR/RW)
 
 
Похожие темы
Форум Тема Автор Торрент Отв. Посл. сооб.
Зарубежное кино [DVDRip, Low-Res HDRip, и т.д.] Охотники на гангстеров / Gangster Squad (Рубен Флейшер / Ruben Fleischer) [2013 г., Боевик, триллер, драма, криминал, HDRip] Dub Gaarochi
11 | 0

3 | 1183

52

10.04.2013 09:23

Зарубежное кино [DVDRip, Low-Res HDRip, и т.д.] Охотники на гангстеров / Gangster Squad (Рубен Флейшер / Ruben Fleischer) [2013 г., HDRip, Боевик, триллер, драма, криминал] Dub + Original Gaarochi
0 | 0

3 | 672

24

07.04.2013 13:23

Зарубежное кино [DVDRip, Low-Res HDRip, и т.д.] Охотники на гангстеров / Gangster Squad (Рубен Флейшер) [2013 г., боевик, триллер, драма, криминал, HDRip] Dub + Original Чертёнок
10 | 0

0 | 1341

69

25.04.2013 10:44

Зарубежное кино [DVDRip, Low-Res HDRip, и т.д.] Охотники на гангстеров / Gangster Squad (Рубен Флейшер / Ruben Fleischer) [2013 г., боевик, триллер, драма, криминал, BDRip-AVC] Dub + Eng 90ytr90
1 | 0

0 | 1211

33

25.04.2013 17:15

Зарубежное кино [DVDRip, Low-Res HDRip, и т.д.] Охотники на гангстеров / Gangster Squad (Рубен Флейшер / Ruben Fleischer) [2013, Боевик, триллер, драма, криминал, BDRip] Dub Garnett
2 | 0

0 | 574

18

26.04.2013 16:37

Зарубежное кино [DVDRip, Low-Res HDRip, и т.д.] Охотники на гангстеров / Gangster Squad (Рубен Флейшер / Ruben Fleischer) [2013 г., боевик, триллер, драма, криминал, BDRip] Dub + Eng 90ytr90
0 | 0

0 | 733

22

28.04.2013 15:48

Зарубежное кино [DVDRip, Low-Res HDRip, и т.д.] Охотники на ведьм / Hansel & Gretel: Witch Hunters (Томми Виркола / Tommy Wirkola) [2013 г., ужасы, фэнтези, боевик, BDRip] Dub + Original Gaarochi
8 | 1

0 | 1600

58

06.06.2013 15:04

Зарубежное кино [DVDRip, Low-Res HDRip, и т.д.] Охотники на ведьм / Hansel & Gretel: Witch Hunters (Томми Виркола) [2013 г., ужасы, фэнтези, боевик, BDRip] Dub [UNRATED] Паукан
6 | 0

0 | 895

23

23.08.2013 22:25

Зарубежное кино [DVDRip, Low-Res HDRip, и т.д.] Охотники на ведьм / Hansel and Gretel: Witch Hunters (Томми Виркола / Tommy Wirkola) [2013 г., ужасы, фэнтези, боевик, BDRip] [Unrated Cut] AVO (А.Гаврилов) 90ytr90
0 | 0

0 | 1279

26

16.09.2013 15:31

T Зарубежное кино [DVDRip, Low-Res HDRip, и т.д.] Охотники на демонов / Hellbenders (Дж.Т. Петти) [2012 г., комедия, ужасы, триллер, WEB-DLRip] Dub (чистый звук) + Original 90ytr90
0 | 1

0 | 1784

44

03.12.2013 17:19


Яндекс.Метрика powered by Sphinx


В Н И М А Н И Е
Сайт не распространяет и не хранит электронные версии произведений, а лишь бесплатно и без коммерческой выгоды (не требуя взамен платы,
SMS и т.д.) предоставляет доступ к создаваемому пользователями каталогу ссылок на торрент-файлы, которые содержат только списки хеш-сумм.
Убедительная просьба с жалобами обращаться напрямую к пользователю, разместившему торрент файл.

Вверх