Loading...
Error

Думай, как мужчина / Think Like a Man (Тим Стори) [2012 г., мелодрама, комедия, HDRip]

Статистика раздачи
Размер:  2,19 GB   |    Зарегистрирован:  4 года 3 месяца   |    Скачан:  98 раз

Полного источника не было: 2 дня 6 часов

Сидов:  0  |  0 KB/s  ]   Личеров:  0  |  0 KB/s  ]

* - сиды/пиры с внешних источников

   
 
Автор Сообщение

RG NewCinema 

13-Авг-2012 19:43

Думай, как мужчина / Think Like a Man


Год выпуска: 2012
Жанр: мелодрама, комедия
Страна: США
Режиссер: Тим Стори
В ролях: Майкл Или, Джерри Феррара, Миган Гуд, Реджина Холл, Кевин Харт, Тараджи П. Хенсон, Терренс Дженкинс, Дженифер Льюис, Романи Малко, Гари Оуэн
Сюжет фильма:
Четверо героев страдают от проблем во взаимоотношениях со спутницами жизни, которые вовсю черпают советы из книги Стива Харви «Поступай как женщина, думай как мужчина». Узнав об этом, парни решают отомстить слабому полу тем, что попытаются опровергнуть данные в тексте рекомендации, ведя себя в точности наоборот.

  • Мировая премьера: 23 марта 2012

|
Качество видео: HDRip

Продолжительность: 02:02:00
Формат: AVI
Видео: XviD, 720x304, 1656 kbps
Аудио #1: русский, многоголосый закадровый [профессиональный], AC3 5.1, 448 kbps
Аудио #2: английский, оригинал, AC3 5.1, 448 kbps

Код:

General
Complete name                            : D:\Dumaj.kak.mujik.2012.P.HDRip.YouTracker_[uniongang.tv].avi
Format                                   : AVI
Format/Info                              : Audio Video Interleave
Format profile                           : OpenDML
File size                                : 2.19 GiB
Duration                                 : 2h 2mn
Overall bit rate                         : 2 570 Kbps
Writing application                      : VirtualDubMod 1.5.10.2 (build 2542/release)
Writing library                          : VirtualDubMod build 2542/release

Video
ID                                       : 0
Format                                   : MPEG-4 Visual
Format profile                           : Advanced Simple@L5
Format settings, BVOP                    : 2
Format settings, QPel                    : No
Format settings, GMC                     : No warppoints
Format settings, Matrix                  : Default (MPEG)
Codec ID                                 : XVID
Codec ID/Hint                            : XviD
Duration                                 : 2h 2mn
Bit rate                                 : 1 656 Kbps
Width                                    : 720 pixels
Height                                   : 304 pixels
Display aspect ratio                     : 2.35:1
Frame rate                               : 23.976 fps
Color space                              : YUV
Chroma subsampling                       : 4:2:0
Bit depth                                : 8 bits
Scan type                                : Progressive
Compression mode                         : Lossy
Bits/(Pixel*Frame)                       : 0.316
Stream size                              : 1.41 GiB (64%)
Writing library                          : XviD 1.2.1 (UTC 2008-12-04)

Audio #1
ID                                       : 1
Format                                   : AC-3
Format/Info                              : Audio Coding 3
Mode extension                           : CM (complete main)
Format settings, Endianness              : Big
Codec ID                                 : 2000
Duration                                 : 2h 2mn
Bit rate mode                            : Constant
Bit rate                                 : 448 Kbps
Channel(s)                               : 6 channels
Channel positions                        : Front: L C R, Side: L R, LFE
Sampling rate                            : 48.0 KHz
Bit depth                                : 16 bits
Compression mode                         : Lossy
Delay relative to video                  : 10ms
Stream size                              : 391 MiB (17%)
Alignment                                : Split accross interleaves
Interleave, duration                     : 42 ms (1.00 video frame)
Interleave, preload duration             : 500 ms

Audio #2
ID                                       : 2
Format                                   : AC-3
Format/Info                              : Audio Coding 3
Mode extension                           : CM (complete main)
Format settings, Endianness              : Big
Codec ID                                 : 2000
Duration                                 : 2h 2mn
Bit rate mode                            : Constant
Bit rate                                 : 448 Kbps
Channel(s)                               : 6 channels
Channel positions                        : Front: L C R, Side: L R, LFE
Sampling rate                            : 48.0 KHz
Bit depth                                : 16 bits
Compression mode                         : Lossy
Stream size                              : 391 MiB (17%)
Alignment                                : Split accross interleaves
Interleave, duration                     : 42 ms (1.00 video frame)
Interleave, preload duration             : 500 ms
Семпл: http://multi-up.com/746164

picpicpic
Для увеличения картинки щелкните мышкой по превью

Этот торрент недоступен для скачивания без регистрации, однако доступен по публичной magnet-ссылке (источники с публичных трекеров). Перед использованием ссылки прочтите, пожалуйста Пользовательское соглашение, а также как можно дольше оставайтесь на раздаче! Для того, чтобы скачать сам торрент-файл (который видит больше источников), а также для того, чтобы поблагодарить релизера, вам необходимо зарегистрироваться. Если регистрироваться лень - вы можете также попробовать скачать релиз по нашим партнерским ссылкам ниже.

[underverse.su].t19198.torrent
Трекер: Зарегистрирован   [ 13.08.2012 19:43 ]  

Статус: проверено (by Паукан at 13.08.2012 19:54)
Поблагодарили: 3 человека
Тип торрента: публичный - доступные источники с открытых трекеров: 
Размер: 2,19 GB (занимает 0,5 DVDR, для записи нужно 1 болванка DVDR/RW)
 
 
Похожие темы
Форум Тема Автор Торрент Отв. Посл. сооб.
Зарубежное кино [DVDRip, Low-Res HDRip, и т.д.] Думай, как мужчина / Think Like a Man (Тим Стори / Tim Story) [2012 г., мелодрама, комедия, HDRip-AVC] Garnett
49 | 1

3 | 404

9

17.09.2012 18:04

T Зарубежное кино [DVDRip, Low-Res HDRip, и т.д.] Думай, как мужчина 2 / Think Like a Man Too (Тим Стори) [2014 г., Комедия, HDRip] MVO (RUS, iTunes Russia) + Original (ENG) Ведьмочка
39 | 1

0 | 480

1

06.10.2014 00:23

T Зарубежное кино [DVDRip, Low-Res HDRip, и т.д.] Думай, как мужчина 2 / Think Like a Man Too (Тим Стори) [2014 г., Комедия, HDRip] MVO (RUS, iTunes Russia) Ведьмочка
36 | 2

0 | 614

17

06.10.2014 00:26

T Зарубежное кино [HDDVDRip / BDRip / WEB-DL / HDTV 1080/720р] Думай, как мужчина 2 / Think Like a Man Too (Тим Стори) [2014 г., Комедия, BDRip 720p] MVO (RUS, iTunes Russia) + Original (ENG) + Subs (ENG, CHN, FRA, IDN, KOR, PRT, ESP, THA) Ведьмочка
14 | 0

0 | 509

5

06.10.2014 00:18

theatre Пол:Муж

27-Авг-2012 10:38

очень классный, красивый и легкий фильм, оставил множество приятных впечатлений)
рекомендую к просмотру! 9\10

mongol 

30-Сен-2012 09:28

спасибо за раздачу ;)

Яндекс.Метрика powered by Sphinx


В Н И М А Н И Е
Сайт не распространяет и не хранит электронные версии произведений, а лишь бесплатно и без коммерческой выгоды (не требуя взамен платы,
SMS и т.д.) предоставляет доступ к создаваемому пользователями каталогу ссылок на торрент-файлы, которые содержат только списки хеш-сумм.
Убедительная просьба с жалобами обращаться напрямую к пользователю, разместившему торрент файл.

Вверх