Loading...
Error

В ритме сердца / Sur le rythme (Шарль Оливье-Мишо) [2011 г., мелодрама, HDRip]

Статистика раздачи
Размер:  1,37 GB   |    Зарегистрирован:  4 года 3 месяца   |    Скачан:  14 раз

Полного источника не было: 4 месяца 17 дней

Сидов:  0  |  0 KB/s  ]   Личеров:  0  |  0 KB/s  ]

* - сиды/пиры с внешних источников

   
 
Автор Сообщение

RG NewCinema 

11-Авг-2012 05:33

В ритме сердца / Sur le rythme


Год выпуска: 2011
Жанр: мелодрама
Страна: Канада
Режиссер: Шарль Оливье-Мишо
В ролях: Милен Сен-Совер, Нико Аршамбо, Френс Кастель, Марина Орсини, Пол Дусе, Алексия Гурд, Лина Росслер, Дави Бойсверт, Handy Jacinthe, Дэнни Амарал Де Матос
Сюжет фильма:
Дельфина — студентка престижного колледжа из хорошей семьи. Марк не знает своего отца, зато хорошо знаком с законами улиц, и легко сведет с ума любую девушку. Она мечтает стать профессиональным танцором. Без него не обходится ни одна зажигательная дискотека города. Им предстоит вместе пройти кастинг и выиграть участие в мировом турне с одним из лучших танцевальных шоу! Колледж заброшен, родители — не в курсе, лучшая подруга — соперница по кастингу и влюблена в Марка, но все это не важно, потому что главное — это сделать самый лучший танец и победить!

  • Мировая премьера: 12 августа 2011
  • Российская премьера: 9 августа 2012, «Кинопром»

/
Качество видео: HDRip

Продолжительность: 01:32:50
Формат: AVI
Видео: XviD, 720x304, 1967 kbps
Аудио: русский, дублированный (чистый звук), MP3 2.0, 128 kbps

Код:

General
Complete name : V.ritme.serdza.2011.D.HDRip.avi
Format : AVI
Format/Info : Audio Video Interleave
File size : 1.37 GiB
Duration : 1h 32mn
Overall bit rate : 2 105 Kbps
Writing application : VirtualDubMod 1.5.10.2 (build 2540/release)
Writing library : VirtualDubMod build 2540/release

Video
ID : 0
Format : MPEG-4 Visual
Format profile : Advanced Simple@L5
Format settings, BVOP : Yes
Format settings, QPel : No
Format settings, GMC : No warppoints
Format settings, Matrix : Default (MPEG)
Codec ID : XVID
Codec ID/Hint : XviD
Duration : 1h 32mn
Bit rate : 1 968 Kbps
Width : 720 pixels
Height : 304 pixels
Display aspect ratio : 2.35:1
Frame rate : 24.000 fps
Color space : YUV
Chroma subsampling : 4:2:0
Bit depth : 8 bits
Scan type : Progressive
Bits/(Pixel*Frame) : 0.375
Stream size : 1.28 GiB (93%)
Writing library : XviD 1.2.1 (UTC 2008-12-04)

Audio
ID : 1
Format : MPEG Audio
Format version : Version 1
Format profile : Layer 3
Codec ID : 55
Codec ID/Hint : MP3
Duration : 1h 32mn
Bit rate mode : Constant
Bit rate : 128 Kbps
Channel(s) : 2 channels
Sampling rate : 44.1 KHz
Stream size : 85.0 MiB (6%)
Alignment : Split accross interleaves
Interleave, duration : 42 ms (1.00 video frame)
Interleave, preload duration : 500 ms
Семпл: http://multi-up.com/744544

picpicpic
Для увеличения картинки щелкните мышкой по превью

Этот торрент недоступен для скачивания без регистрации, однако доступен по публичной magnet-ссылке (источники с публичных трекеров). Перед использованием ссылки прочтите, пожалуйста Пользовательское соглашение, а также как можно дольше оставайтесь на раздаче! Для того, чтобы скачать сам торрент-файл (который видит больше источников), а также для того, чтобы поблагодарить релизера, вам необходимо зарегистрироваться. Если регистрироваться лень - вы можете также попробовать скачать релиз по нашим партнерским ссылкам ниже.

[underverse.su].t19145.torrent
Трекер: Зарегистрирован   [ 11.08.2012 05:33 ]  

Статус: проверено (by Паукан at 11.08.2012 06:08)
Поблагодарили: 1 человек
Тип торрента: публичный - доступные источники с открытых трекеров: 
Размер: 1,37 GB (занимает 0,31 DVDR, для записи нужно 1 болванка DVDR/RW)
 
 
Похожие темы
Форум Тема Автор Торрент Отв. Посл. сооб.
Зарубежное кино [DVDRip, Low-Res HDRip, и т.д.] В ритме сердца / Sur le rythme (Шарль Оливье-Мишо) [2011 г., мелодрама, HDRip] [лицензия] 90ytr90
2 | 0

0 | 292

12

11.09.2012 19:33

Зарубежное кино [DVDRip, Low-Res HDRip, и т.д.] В ритме сердца / Sur le rythme (Шарль Оливье-Мишо / Charles-Olivier Michaud) [2011 г., мелодрама, HDRip] Garnett
12 | 0

0 | 226

3

12.09.2012 11:44


Яндекс.Метрика powered by Sphinx


В Н И М А Н И Е
Сайт не распространяет и не хранит электронные версии произведений, а лишь бесплатно и без коммерческой выгоды (не требуя взамен платы,
SMS и т.д.) предоставляет доступ к создаваемому пользователями каталогу ссылок на торрент-файлы, которые содержат только списки хеш-сумм.
Убедительная просьба с жалобами обращаться напрямую к пользователю, разместившему торрент файл.

Вверх