Loading...
Error

Американский пирог: Все в сборе / American Reunion (Джон Харвитц, Хейден Шлоссберг) [2012 г., комедия, HDRip] (Rus, Eng) HQ Underverse

Статистика раздачи
Размер:  2,17 GB   |    Зарегистрирован:  4 года 3 месяца   |    Скачан:  45 раз

Полного источника не было: 5 месяцев 24 дня

Сидов:  0  |  0 KB/s  ]   Личеров:  0  |  0 KB/s  ]

* - сиды/пиры с внешних источников

   
 
Автор Сообщение

HQ Underverse 

10-Авг-2012 14:56

Американский пирог: Все в сборе / American Reunion


Год выпуска: 2012
Жанр: комедия
Страна: США
Режиссер: Джон Харвитц, Хейден Шлоссберг
В ролях: Джейсон Биггз, Элисон Хэннигэн, Крис Клейн, Томас Иэн Николас, Тара Рид, Шонн Уильям Скотт, Мена Сувари, Эдди Кэй Томас, Джон Чо, Дженнифер Кулидж
Сюжет фильма:
Герои «Американского пирога» встречаются вновь спустя несколько лет. Они докажут, что даже время и расстояние не в силах разрушить их дружбу. Летом 1999-го четверо мичиганских парней решили расстаться с невинностью. Прошли годы, и теперь друзья вернулись домой уже повзрослевшими, чтобы вспомнить прошлое и оторваться на полную катушку.

  • Мировая премьера: 4 апреля 2012
  • Российская премьера: 5 апреля 2012, «UPI»

|
Качество видео: HDRip

Продолжительность: 01:52:52
Формат: avi
Видео: XviD, 704x384, 2286 kbps
Аудио #1: русский, дублированный [лицензия], AC3 5.1, 448 kbps
Аудио #2: английский, оригинал, AC3 5.1, 448 kbps (отдельным файлом: здесь)
Субтитры #1: внешние, SRT, английский
Субтитры #2: внешние, SRT, русский (forced)
Субтитры #3: внешние, SRT, русский

Код:

General
Complete name                    : Z:\Видео\HQ\Американский пирог все в сборе\American.Reunion.2012.HDRip.XviD.AC3.Rus.D.HQ.Underverse.avi
Format                           : AVI
Format/Info                      : Audio Video Interleave
Format profile                   : OpenDML
File size                        : 2.17 GiB
Duration                         : 1h 52mn
Overall bit rate                 : 2 747 Kbps
Writing application              : VirtualDubMod 1.5.10.2 (build 2542/release)
Writing library                  : VirtualDubMod build 2542/release

Video
ID                               : 0
Format                           : MPEG-4 Visual
Format profile                   : Streaming Video@L1
Format settings, BVOP            : Yes
Format settings, QPel            : No
Format settings, GMC             : No warppoints
Format settings, Matrix          : Custom
Muxing mode                      : Packed bitstream
Codec ID                         : XVID
Codec ID/Hint                    : XviD
Duration                         : 1h 52mn
Bit rate                         : 2 287 Kbps
Width                            : 704 pixels
Height                           : 384 pixels
Display aspect ratio             : 16/9
Frame rate                       : 23.976 fps
Resolution                       : 24 bits
Colorimetry                      : 4:2:0
Scan type                        : Progressive
Bits/(Pixel*Frame)               : 0.353
Stream size                      : 1.80 GiB (83%)
Writing library                  : XviD 64

Audio
ID                               : 1
Format                           : AC-3
Format/Info                      : Audio Coding 3
Codec ID                         : 2000
Duration                         : 1h 52mn
Bit rate mode                    : Constant
Bit rate                         : 448 Kbps
Channel(s)                       : 6 channels
Channel positions                : Front: L C R, Surround: L R, LFE
Sampling rate                    : 48.0 KHz
Stream size                      : 362 MiB (16%)
Alignment                        : Split accross interleaves
Interleave, duration             : 42 ms (1.00 video frame)
Interleave, preload duration     : 500 ms

General
Complete name                    : Z:\Видео\HQ\Американский пирог все в сборе\American.Reunion.2012.HDRip.XviD.AC3.Rus.D.HQ.Underverse.ENG.ac3
Format                           : AC-3
Format/Info                      : Audio Coding 3
File size                        : 362 MiB
Duration                         : 1h 52mn
Overall bit rate                 : 448 Kbps

Audio
Format                           : AC-3
Format/Info                      : Audio Coding 3
Duration                         : 1h 52mn
Bit rate mode                    : Constant
Bit rate                         : 448 Kbps
Channel(s)                       : 6 channels
Channel positions                : Front: L C R, Surround: L R, LFE
Sampling rate                    : 48.0 KHz
Stream size                      : 362 MiB (100%)

Релиз группы:

picpicpic
Для увеличения картинки щелкните мышкой по превью

Этот торрент недоступен для скачивания без регистрации, однако доступен по публичной magnet-ссылке (источники с публичных трекеров). Перед использованием ссылки прочтите, пожалуйста Пользовательское соглашение, а также как можно дольше оставайтесь на раздаче! Для того, чтобы скачать сам торрент-файл (который видит больше источников), а также для того, чтобы поблагодарить релизера, вам необходимо зарегистрироваться. Если регистрироваться лень - вы можете также попробовать скачать релиз по нашим партнерским ссылкам ниже.

[underverse.su].t19139.torrent
Трекер: Зарегистрирован   [ 10.08.2012 14:56 ]  

Статус: проверено (by Паукан at 10.08.2012 16:17)
Поблагодарили: пока никто не поблагодарил...
Тип торрента: публичный - доступные источники с открытых трекеров: 
Размер: 2,17 GB (занимает 0,49 DVDR, для записи нужно 1 болванка DVDR/RW)
 
 
Похожие темы
Форум Тема Автор Торрент Отв. Посл. сооб.
Зарубежное кино [DVDRip, Low-Res HDRip, и т.д.] Американская история Х / American History X (Тони Кей / Tony Kaye) [1998 г., драма, криминал, BDRip-AVC] MVO (West Video) + Original (Eng) + Sub (Rus, Eng) M-i-i-i-ke
22 | 1

2 | 1545

2

22.02.2016 19:48

Зарубежное кино [DVDRip, Low-Res HDRip, и т.д.] Американский бизон / American Buffalo (Майкл Корренте / Michael Corrente) [1996 г., драма, экранизация, HDRip] DVO + AVO (П.Карцев) 90ytr90
6 | 0

0 | 749

1

26.11.2016 08:10

Зарубежное кино [DVDRip, Low-Res HDRip, и т.д.] Американский пирог: Все в сборе / American Reunion (Джон Харвитц, Хейден Шлоссберг) [2012 г., комедия, BDRip] WeaSel
1 | 0

0 | 740

24

08.08.2012 19:57

Зарубежное кино [DVDRip, Low-Res HDRip, и т.д.] Американский боевой корабль / American Warships (Тандер Левин) [2012 г., боевик, HDRip] MVO [SyFy] + Original RG NewCinema
0 | 0

0 | 1105

47

21.10.2012 20:15

Зарубежное кино [DVDRip, Low-Res HDRip, и т.д.] Американская Мэри / American Mary (Джен Соска, Сильвия Соска) [2012 г., ужасы, триллер, DVDRip] DVO [den904, DeadSno] RG NewCinema
7 | 0

3 | 1529

33

31.01.2013 12:21

Зарубежное кино [DVDRip, Low-Res HDRip, и т.д.] Американская Мэри / American Mary (Джен Соска / Jen Soska, Сильвия Соска / Sylvia Soska) [2012 г., ужасы, триллер, HDRip] DVO Gaarochi
7 | 0

0 | 985

6

22.03.2013 15:58

Зарубежное кино [DVDRip, Low-Res HDRip, и т.д.] Американская карусель / Roundabout American (Борис Уэкслер) [2012 г., комедия, SATRip] DVO Паукан
1 | 0

0 | 1579

13

14.05.2013 13:10

Зарубежное кино [DVDRip, Low-Res HDRip, и т.д.] Американская карусель / Roundabout American (Борис Уэкслер) [2012 г., комедия, HDTVRip] MVO RG NewCinema
8 | 0

0 | 1369

22

23.05.2013 11:21

Зарубежное кино [DVDRip, Low-Res HDRip, и т.д.] Американская Мэри / American Mary (Джен Соска, Сильвия Соска) [2012 г., Ужасы, BDRip-AVC] DVO (RUS, Влад & Снежинка) + Original (ENG) + Subs (RUS, ENG) Ведьмочка
13 | 0

0 | 612

3

23.08.2014 17:19

Зарубежное кино [DVDRip, Low-Res HDRip, и т.д.] Американская Мэри / American Mary (Джен Соска, Сильвия Соска) [2012 г., Ужасы, BDRip-AVC] DVO (RUS, Влад & Снежинка) + Original (ENG) + Subs (RUS, ENG) Ведьмочка
9 | 0

0 | 641

1

23.08.2014 17:22


Яндекс.Метрика powered by Sphinx


В Н И М А Н И Е
Сайт не распространяет и не хранит электронные версии произведений, а лишь бесплатно и без коммерческой выгоды (не требуя взамен платы,
SMS и т.д.) предоставляет доступ к создаваемому пользователями каталогу ссылок на торрент-файлы, которые содержат только списки хеш-сумм.
Убедительная просьба с жалобами обращаться напрямую к пользователю, разместившему торрент файл.

Вверх