Loading...
Error

Безумные байки девичьей общаги! | Gokujo. Gokurakuin Joshikou Ryou Monogatari / TV-series, (Хигасидэ Футоси) [2012, комедия, этти, повседневность, сёдзё-ай, DVDRip]

Статистика раздачи
Размер:  990 MB   |    Зарегистрирован:  4 года 3 месяца   |    Скачан:  18 раз

Полного источника не было: 23 дня

Сидов:  0  |  0 KB/s  ]   Личеров:  0  |  0 KB/s  ]

* - сиды/пиры с внешних источников

   
 
Автор Сообщение

Печаль'ka Пол:Жен

07-Авг-2012 02:43

Безумные байки девичьей общаги!
[ Gokujo. Gokurakuin Joshikou Ryou Monogatari | ゴクジョッ。~極楽院女子高寮物語~ ]
[ WorldArt | AniDB ]


Жанры: комедия, этти, повседневность, сёдзё-ай
Тип: TV-series
Количество серий: 1-12 in 12
Страна: Япония
Время выхода: 2012
Режиссер: Хигасидэ Футоси
Студия:

Сюжет фильма: Мастерство хентайных мангак не пропьешь!.. и даже когда они рисуют этти, всё равно выходит почти хентай.

Ая Акабанэ учится в женской школе и живет в общежитии Гокураку. Она – раскованная, стильная, уверенная в себе и очень сексапильная девушка... ну, по крайней мере, Ая-тян на этом настаивает! Вместе с ней учатся инфантильная Конацу Торо («мисс детские трусики»), озабоченная Мадока Овада («сисястое чудовище»), тихоня Ай Наносато и высокомерная извращенка Уцуномия-сан.

Жизнь разбитных старшеклассниц, которые развлекаются, соперничают, флиртуют и самоутверждаются кто во что горазд – это смешное, захватывающе и совершенно непристойное зрелище! Одной пропажей панцу дело не ограничится: французские поцелуи, японские школьные купальники, международный вуайеризм и не имеющая национальности техника введения шариков от пинг-понга...
  © Анастасия Розанова, World Art

Качество видео: DVDRip
Продолжительность: 12 эп. х 6 мин.

Формат: avi
Видео: XviD, 704x396, 1707 kbps
Аудио: русский, двухголосый закадровый (Трина Дубовицкая & Nika Lenina), MP3 2.0, 192 kbps

Код:

General
Complete name                    : E:\Хентай\Gokujo. Gokuraku In Joshikou Ryou Monogatari TV [HWP]\Gokujo_[03]_[704x396_XviD]_[Trina_D_&_NikaLenina].avi
Format                           : AVI
Format/Info                      : Audio Video Interleave
File size                        : 82.6 MiB
Duration                         : 6mn 2s
Overall bit rate                 : 1 912 Kbps
Writing application              : Lavf52.79.0

Video
ID                               : 0
Format                           : MPEG-4 Visual
Format profile                   : Simple@L3
Format settings, BVOP            : No
Format settings, QPel            : No
Format settings, GMC             : No warppoints
Format settings, Matrix          : Default (H.263)
Codec ID                         : XVID
Codec ID/Hint                    : XviD
Duration                         : 6mn 2s
Bit rate                         : 1 707 Kbps
Width                            : 704 pixels
Height                           : 396 pixels
Display aspect ratio             : 16/9
Frame rate                       : 23.976 fps
Resolution                       : 24 bits
Colorimetry                      : 4:2:0
Scan type                        : Progressive
Bits/(Pixel*Frame)               : 0.255
Stream size                      : 73.8 MiB (89%)
Writing library                  : XviD 1.2.1 (UTC 2008-12-04)

Audio
ID                               : 1
Format                           : MPEG Audio
Format version                   : Version 1
Format profile                   : Layer 3
Codec ID                         : 55
Codec ID/Hint                    : MP3
Duration                         : 6mn 2s
Bit rate mode                    : Constant
Bit rate                         : 192 Kbps
Channel(s)                       : 2 channels
Sampling rate                    : 48.0 KHz
Resolution                       : 16 bits
Stream size                      : 8.29 MiB (10%)
Alignment                        : Aligned on interleaves
Interleave, duration             : 24 ms (0.58 video frame)
Interleave, preload duration     : 24 ms

picpicpicpic
Для увеличения картинки щелкните мышкой по превью
01. Who's Not Wearing Panties!?
02. Hiccups Won't Stop
03. The Executioner Princess And The Demon King's Advent
04. First XX at the Pool!?
05. Utsunomiya-style Spiritual Cold Cure
06. Let's Surprise Utsunomiya!!
07. Gokuraku Institute's Girls' Carnival
08. The Princess Arrives!!
09. The Really Amnesiac Aya-chan
10. Wet Bitch Showdown!!
11. Crazy Masquerade?
12. Farewell, Kurihashi!!

Этот торрент доступен для скачивания без регистрации. Перед тем, как его скачать, прочтите, пожалуйста Пользовательское соглашение, а также как можно дольше оставайтесь на раздаче! Также вы можете выкладывать этот торрент или ссылку на него на других интернет-ресурсах, в том числе на торрент трекерах. Для получение более подробной информации о релизе, а также для того, чтобы поблагодарить релизера, вам необходимо зарегистрироваться.

[underverse.su].t19096.torrent
Трекер: Зарегистрирован   [ 07.08.2012 02:43 ]   [ торрент доступен для скачивания без регистрации ]

Статус: проверено (by Печаль'ka at 07.08.2012 02:47)
Поблагодарили: 3 человека
Тип торрента: публичный - доступные источники с открытых трекеров: 
Размер: 990 MB (занимает 0,22 DVDR, для записи нужно 1 болванка DVDR/RW)
 
 

Яндекс.Метрика powered by Sphinx


В Н И М А Н И Е
Сайт не распространяет и не хранит электронные версии произведений, а лишь бесплатно и без коммерческой выгоды (не требуя взамен платы,
SMS и т.д.) предоставляет доступ к создаваемому пользователями каталогу ссылок на торрент-файлы, которые содержат только списки хеш-сумм.
Убедительная просьба с жалобами обращаться напрямую к пользователю, разместившему торрент файл.

Вверх