Loading...
Error

Святые роллеры / Holy Rollers (Кевин Аш) [2010 г., новости, драма, криминал, биография, история, HDRip]

Статистика раздачи
Размер:  1,37 GB   |    Зарегистрирован:  4 года 4 месяца   |    Скачан:  4 раза

Полного источника не было: 4 года 3 месяца

Сидов:  0  |  0 KB/s  ]   Личеров:  0  |  0 KB/s  ]

* - сиды/пиры с внешних источников

   
 
Автор Сообщение

RG NewCinema 

05-Авг-2012 00:58

Святые роллеры / Holy Rollers


Год выпуска: 2010
Жанр: новости, драма, криминал, биография, история
Страна: США
Режиссер: Кевин Аш
В ролях: Джесси Айзенберг, Джастин Барта, Эри Грейнор, Дэнни А. Абекейзер, Марк Иванир, Элизабет Марвел, Джейсон Фучс, Кью-Тип, Халли Кейт Айзенберг, Берн Коэн
Сюжет фильма:
Сэм Голд, молодой хасид из ортодоксальной общины Бруклина, неохотно идет по пути, который избрала для него семья. Его очаровательный сосед, Йосеф Циммерман, понимает чувства Сэма и предлагает ему сотрудничать в транспортировке «лекарства» с израильскими дилерами и его подружкой Рэйчел. Сэм быстро демонстрирует свои деловые умения новым хозяевам, и они берут его под свое крыло. Через какое-то время двойная жизнь Сэма приводит его к необходимости сделать очень серьезный и страшный выбор.

  • Мировая премьера: 25 января 2010

|
Качество видео: HDRip

Продолжительность: 01:28:49

Формат: AVI
Видео: XviD, 720x384, 1746 kbps
Аудио: русский, одноголосый закадровый [zamez], AC3 5.1, 448 kbps

Код:

General
Complete name : Sviatie.Rolery.2010.L1.HDRip.avi
Format : AVI
Format/Info : Audio Video Interleave
File size : 1.37 GiB
Duration : 1h 28mn
Overall bit rate : 2 203 Kbps
Writing application : VirtualDubMod 1.5.10.2 (build 2540/release)
Writing library : VirtualDubMod build 2540/release

Video
ID : 0
Format : MPEG-4 Visual
Format profile : Advanced Simple@L5
Format settings, BVOP : Yes
Format settings, QPel : No
Format settings, GMC : No warppoints
Format settings, Matrix : Default (MPEG)
Codec ID : XVID
Codec ID/Hint : XviD
Duration : 1h 28mn
Bit rate : 1 746 Kbps
Width : 720 pixels
Height : 384 pixels
Display aspect ratio : 1.875
Frame rate : 23.976 fps
Color space : YUV
Chroma subsampling : 4:2:0
Bit depth : 8 bits
Scan type : Progressive
Bits/(Pixel*Frame) : 0.263
Stream size : 1.08 GiB (79%)
Writing library : XviD 1.2.1 (UTC 2008-12-04)

Audio
ID : 1
Format : AC-3
Format/Info : Audio Coding 3
Mode extension : CM (complete main)
Codec ID : 2000
Duration : 1h 28mn
Bit rate mode : Constant
Bit rate : 448 Kbps
Channel(s) : 6 channels
Channel positions : Front: L C R, Side: L R, LFE
Sampling rate : 48.0 KHz
Bit depth : 16 bits
Stream size : 285 MiB (20%)
Alignment : Split accross interleaves
Interleave, duration : 42 ms (1.00 video frame)
Interleave, preload duration : 500 ms
Семпл: http://multi-up.com/741049
picpicpic
Для увеличения картинки щелкните мышкой по превью

Этот торрент недоступен для скачивания без регистрации, однако доступен по публичной magnet-ссылке (источники с публичных трекеров). Перед использованием ссылки прочтите, пожалуйста Пользовательское соглашение, а также как можно дольше оставайтесь на раздаче! Для того, чтобы скачать сам торрент-файл (который видит больше источников), а также для того, чтобы поблагодарить релизера, вам необходимо зарегистрироваться. Если регистрироваться лень - вы можете также попробовать скачать релиз по нашим партнерским ссылкам ниже.

[underverse.su].t19077.torrent
Трекер: Зарегистрирован   [ 05.08.2012 00:58 ]  

Статус: проверено (by garry at 05.08.2012 10:03)
Поблагодарили: пока никто не поблагодарил...
Тип торрента: публичный - доступные источники с открытых трекеров: 
Размер: 1,37 GB (занимает 0,31 DVDR, для записи нужно 1 болванка DVDR/RW)
 
 

Яндекс.Метрика powered by Sphinx


В Н И М А Н И Е
Сайт не распространяет и не хранит электронные версии произведений, а лишь бесплатно и без коммерческой выгоды (не требуя взамен платы,
SMS и т.д.) предоставляет доступ к создаваемому пользователями каталогу ссылок на торрент-файлы, которые содержат только списки хеш-сумм.
Убедительная просьба с жалобами обращаться напрямую к пользователю, разместившему торрент файл.

Вверх