Loading...
Error

Королевство полной луны / Moonrise Kingdom (Уэс Андерсон) [2012 г., драма, комедия, HDRip] (Rus) HQ Underverse

Статистика раздачи
Размер:  1,45 GB   |    Зарегистрирован:  4 года 3 месяца   |    Скачан:  59 раз

Полного источника не было: 1 день 20 часов

Сидов:  0  |  0 KB/s  ]   Личеров:  0  |  0 KB/s  ]

* - сиды/пиры с внешних источников

   
 
Автор Сообщение

HQ Underverse 

04-Авг-2012 16:56

Королевство полной луны / Moonrise Kingdom


Год выпуска: 2012
Жанр: драма, комедия
Страна: США
Режиссер: Уэс Андерсон
В ролях: Брюс Уиллис, Эдвард Нортон, Билл Мюррей, Кара Хэйуорд, Тильда Суинтон, Фрэнсис МакДорманд, Джейсон Шварцман, Харви Кейтель, Джаред Гилман, Боб Бэлабан
Сюжет фильма:
После таинственного исчезновения мальчишки из лагеря бойскаутов принципиальный шериф ставит всех на уши. Свое альтернативное расследование начинает тренер бойскаутов. Мамаша девушки бьется в истерике, а отец, кажется, что-то скрывает… Ведь у каждого в жизни бывает первая любовь.

  • Мировая премьера: 16 мая 2012
  • Российская премьера: 21 июня 2012, «Парадиз»

/
Качество видео: HDRip

Продолжительность: 01:33:39

Формат: avi
Видео: XviD, 704x384, 1826 kbps
Аудио: русский, дублированный [лицензия], AC3 5.1, 384 kbps

Примечание: Это рип с русской лицензии, поэтому в нем отсутствует английская дорожка и субтитры. По вашим запросом они могут быть добавлены позже.

Код:

General
Complete name                    : Z:\Видео\HQ\Королевство полной луны\Moonrise.Kingdom.2012.HDRip.XviD.AC3.Rus.D.HQ.Underverse.avi
Format                           : AVI
Format/Info                      : Audio Video Interleave
File size                        : 1.45 GiB
Duration                         : 1h 33mn
Overall bit rate                 : 2 220 Kbps
Writing application              : VirtualDubMod 1.5.10.2 (build 2542/release)
Writing library                  : VirtualDubMod build 2542/release

Video
ID                               : 0
Format                           : MPEG-4 Visual
Format profile                   : Streaming Video@L1
Format settings, BVOP            : Yes
Format settings, QPel            : No
Format settings, GMC             : No warppoints
Format settings, Matrix          : Custom
Muxing mode                      : Packed bitstream
Codec ID                         : XVID
Codec ID/Hint                    : XviD
Duration                         : 1h 33mn
Bit rate                         : 1 826 Kbps
Width                            : 704 pixels
Height                           : 384 pixels
Display aspect ratio             : 16/9
Frame rate                       : 23.976 fps
Resolution                       : 24 bits
Colorimetry                      : 4:2:0
Scan type                        : Progressive
Bits/(Pixel*Frame)               : 0.282
Stream size                      : 1.19 GiB (82%)
Writing library                  : XviD 64

Audio
ID                               : 1
Format                           : AC-3
Format/Info                      : Audio Coding 3
Codec ID                         : 2000
Duration                         : 1h 33mn
Bit rate mode                    : Constant
Bit rate                         : 384 Kbps
Channel(s)                       : 6 channels
Channel positions                : Front: L C R, Surround: L R, LFE
Sampling rate                    : 48.0 KHz
Stream size                      : 257 MiB (17%)
Alignment                        : Split accross interleaves
Interleave, duration             : 42 ms (1.00 video frame)
Interleave, preload duration     : 500 ms

Релиз группы:
picpicpic
Для увеличения картинки щелкните мышкой по превью

Этот торрент недоступен для скачивания без регистрации, однако доступен по публичной magnet-ссылке (источники с публичных трекеров). Перед использованием ссылки прочтите, пожалуйста Пользовательское соглашение, а также как можно дольше оставайтесь на раздаче! Для того, чтобы скачать сам торрент-файл (который видит больше источников), а также для того, чтобы поблагодарить релизера, вам необходимо зарегистрироваться. Если регистрироваться лень - вы можете также попробовать скачать релиз по нашим партнерским ссылкам ниже.

[underverse.su].t19060.torrent
Трекер: Зарегистрирован   [ 04.08.2012 16:56 ]  

Статус: проверено (by HQ Underverse at 04.08.2012 16:57)
Поблагодарили: 5 человек
Тип торрента: публичный - доступные источники с открытых трекеров: 
Размер: 1,45 GB (занимает 1/3 DVDR, для записи нужно 1 болванка DVDR/RW)
 
 
Похожие темы
Форум Тема Автор Торрент Отв. Посл. сооб.
Зарубежное кино [DVDRip, Low-Res HDRip, и т.д.] Королевство полной луны / Moonrise Kingdom (Уэс Андерсон) [2012 г., драма, комедия, DVDRip] DUB Greshnik
0 | 1

3 | 1407

97

01.09.2012 19:27

Зарубежное кино [DVDRip, Low-Res HDRip, и т.д.] Королевство викингов / Vikingdom (Исри Крю) [2013 г., приключения, фэнтези, боевик, WEB-DLRip] MVO (BaibaKo) 90ytr90
1 | 0

0 | 1654

26

21.10.2013 14:58

Зарубежное кино [DVDRip, Low-Res HDRip, и т.д.] Королевство викингов / Vikingdom (Исри Крю) [2013 г., приключения, фэнтези, боевик, WEB-DLRip] MVO (BaibaKo) + Original 90ytr90
1 | 1

0 | 390

18

21.10.2013 15:38

Зарубежное кино [DVDRip, Low-Res HDRip, и т.д.] Королевство полной луны / Moonrise Kingdom (Уэс Андерсон / Wes Anderson) [2012 г., драма, комедия, BDRip-AVC] Dub + Original garry
11 | 0

0 | 1882

19

24.11.2013 12:36

Зарубежное кино [DVDRip, Low-Res HDRip, и т.д.] Королевство викингов / Vikingdom (Исри Крю) [2013 г., приключения, фэнтези, боевик, HDRip] MVO (BaibaKo) 90ytr90
48 | 1

0 | 1777

38

14.12.2013 12:25

Зарубежное кино [DVD / HDDVD / BD / Remux] Королевство полной луны / Moonrise Kingdom (Уэс Андерсон / Wes Anderson) [2012, Драма, комедия, Blu-ray disc (Custom) 1080p] Dub + Original (Eng) + Sub (Ger, Eng) uzi2009
0 | 0

0 | 1218

4

17.02.2014 12:29

Наше кино [HDDVDRip / BDRip / WEB-DL / HDTV 1080/720р] Королевство кривых зеркал (Александр Роу) [1963 г., фэнтези, семейный, BDRip 1080p] Чертёнок
3 | 0

0 | 775

13

11.08.2013 13:10

Эротические игры Королевство Сексуальных Фантазий Антология / Sexual Fantasy Kingdom Antology [2008-2013 г., Futanari, Elf, Fantasy, Vampire] ENG [L] Печаль'ka
2 | 0

0 | 1206

107

24.04.2013 12:27

Zeratul1 Пол:Жен

07-Янв-2013 16:37

Актерский состав весьма хороший, сам фильм не детский, а скорее воспоминания взрослых о детской любви...

garry Пол:Муж

07-Янв-2013 16:56

Zeratul1

Цитата:

Актерский состав весьма хороший
здесь же стареющий Брюс) который Вам не понравился в Лупере...

Яндекс.Метрика powered by Sphinx


В Н И М А Н И Е
Сайт не распространяет и не хранит электронные версии произведений, а лишь бесплатно и без коммерческой выгоды (не требуя взамен платы,
SMS и т.д.) предоставляет доступ к создаваемому пользователями каталогу ссылок на торрент-файлы, которые содержат только списки хеш-сумм.
Убедительная просьба с жалобами обращаться напрямую к пользователю, разместившему торрент файл.

Вверх