Loading...
Error

Санта Лючия / Сезон: 1 Серии: 1-8 из 8 (Владимир Краснопольский, Валерий Усков) [2012, Мелодрама, комедия, SATRip]

Статистика раздачи
Размер:  4,3 GB   |    Зарегистрирован:  4 года 4 месяца   |    Скачан:  2 раза

Полного источника не было: 9 месяцев

Сидов:  0  |  0 KB/s  ]   Личеров:  0  |  0 KB/s  ]

* - сиды/пиры с внешних источников

   
 
Автор Сообщение

nemos Пол:Муж

31-Июл-2012 16:11

Санта Лючия


Год выпуска: 2012
Жанр: мелодрама, комедия
Страна: Россия
Режиссер: Валерий Усков, Владимир Краснопольский
В ролях: Юлия Пересильд, Алексей Лонгин, Анна Покрепа, Максим Дрозд, Всеволод Шиловский, Олеся Лесникова, Владимир Зайцев, Анастасия Боброва, Наталья Гончарова, Людмила Баталова
Сюжет фильма:
Виктория Сайкина вместе со своим младшим братом Пашкой живет в небольшом провинциальном городке. Ее заветная мечта — когда-нибудь отправиться в «Санта Лючию», живописное местечко из известной песни Робертино Лоретти. Но с зарплатой продавца одежды в привокзальном магазине и необходимостью постоянно вытаскивать своего брата из разных передряг надежда на поездку в Италию с каждым днем становится для Вики все более призрачной.


Качество видео: SatRip

Продолжительность: 00:42:22 серия

Формат: AVI
Видео: XviD, 720x400, 1615 kbps
Аудио: русский, MP3 2.0, 192 kbps

Код:

D:\СКАЧКИ\С underverse\Санта Лючия\Santa.Lyuchiya.02.2012.SATRip.avi
   General
      Complete name : D:\СКАЧКИ\С underverse\Санта Лючия\Santa.Lyuchiya.02.2012.SATRip.avi
      Format : AVI
      Format/Info : Audio Video Interleave
      File size : 550 MiB
      Duration : 42mn 22s
      Overall bit rate : 1 814 Kbps
      Writing application : VirtualDubMod 1.5.4.1 (build 2178/release)
      Writing library : VirtualDubMod build 2178/release
   Video #0
      ID : 0
      Format : MPEG-4 Visual
      Format profile : Advanced Simple@L5
      Format settings, BVOP : Yes
      Format settings, QPel : No
      Format settings, GMC : No warppoints
      Format settings, Matrix : Custom
      Codec ID : XVID
      Codec ID/Hint : XviD
      Duration : 42mn 22s
      Bit rate : 1 615 Kbps
      Width : 720 pixels
      Height : 400 pixels
      Display aspect ratio : 16:9
      Frame rate : 25.000 fps
      Color space : YUV
      Chroma subsampling : 4:2:0
      Bit depth : 8 bits
      Scan type : Progressive
      Bits/(Pixel*Frame) : 0.224
      Stream size : 490 MiB (89%)
      Writing library : XviD 64
   Audio #1
      ID : 1
      Format : MPEG Audio
      Format version : Version 1
      Format profile : Layer 3
      Mode : Joint stereo
      Mode extension : MS Stereo
      Codec ID : 55
      Codec ID/Hint : MP3
      Duration : 42mn 22s
      Bit rate mode : Constant
      Bit rate : 192 Kbps
      Channel(s) : 2 channels
      Sampling rate : 48.0 KHz
      Stream size : 58.2 MiB (11%)
      Alignment : Aligned on interleaves
      Interleave, duration : 80 ms (2.00 video frames)
      Interleave, preload duration : 504 ms
      Writing library : LAME3.98r
      Encoding settings : -m j -V 4 -q 2 -lowpass 18.6 -b 192
Семпл: http://multi-up.com/740270

picpicpicpicpicpicpicpicpicpic
Для увеличения картинки щелкните мышкой по превью

Этот торрент недоступен для скачивания без регистрации, однако доступен по публичной magnet-ссылке (источники с публичных трекеров). Перед использованием ссылки прочтите, пожалуйста Пользовательское соглашение, а также как можно дольше оставайтесь на раздаче! Для того, чтобы скачать сам торрент-файл (который видит больше источников), а также для того, чтобы поблагодарить релизера, вам необходимо зарегистрироваться. Если регистрироваться лень - вы можете также попробовать скачать релиз по нашим партнерским ссылкам ниже.

[underverse.su].t19052.torrent
Трекер: Зарегистрирован   [ 03.08.2012 19:30 ]  

Статус: проверено (by garry at 05.08.2012 10:05)
Поблагодарили: 1 человек
Тип торрента: публичный - доступные источники с открытых трекеров: 
Размер: 4,3 GB (занимает 0,98 DVDR, для записи нужно 1 болванка DVDR/RW)
 
 

Яндекс.Метрика powered by Sphinx


В Н И М А Н И Е
Сайт не распространяет и не хранит электронные версии произведений, а лишь бесплатно и без коммерческой выгоды (не требуя взамен платы,
SMS и т.д.) предоставляет доступ к создаваемому пользователями каталогу ссылок на торрент-файлы, которые содержат только списки хеш-сумм.
Убедительная просьба с жалобами обращаться напрямую к пользователю, разместившему торрент файл.

Вверх