Loading...
Error

Товарищи полицейские (Криминальная полиция) / Сезон: 2, Серии: 25-32 из 32 (Юрий Музыка, Юрий Харнас, Константин Фролов) [2012 г., детектив, криминал, SATRip]

Статистика раздачи
Размер:  4,66 GB   |    Зарегистрирован:  4 года 4 месяца   |    Скачан:  6 раз

Полного источника не было: 2 года

Сидов:  0  |  0 KB/s  ]   Личеров:  0  |  0 KB/s  ]

* - сиды/пиры с внешних источников

   
 
Автор Сообщение

nemos Пол:Муж

29-Июл-2012 17:06

Товарищи полицейские (25-32 серия из 32)


Год выпуска: 2011
Жанр: криминал, детектив
Страна: Россия
Режиссер: Юрий Музыка, Юрий Харнас, Константин Фролов
В ролях: Сергей Сосновский, Светлана Свибильская, Алексей Демидов, Егор Баринов, Владислав Демин, Татьяна Орлова, Алексей Осипов, Анжелина Карелина, Сергей Удовик, Владислав Резник
Сюжет фильма:
Главные герои сериала — современные сотрудники МУРа. Они мало чем отличаются от всех нас. У них тоже есть семьи, прошлое, планы на будущее, свои слабости, привычки, достоинства и недостатки. Но эти люди каждый день выходят на борьбу с преступностью.


Качество видео: SatRip

Продолжительность: 00:52:00 х 8 серий

Формат: AVI
Видео: XviD, 704x384, 1399 kbps
Аудио: русский, оригинал, MP3 2.0, 128 kbps

Код:

D:\СКАЧКИ\С underverse\Товарищи полицейские 2011\Товарищи полицейские.27.avi
   General
      Complete name : D:\СКАЧКИ\С underverse\Товарищи полицейские 2011\Товарищи полицейские.27.avi
      Format : AVI
      Format/Info : Audio Video Interleave
      File size : 578 MiB
      Duration : 52mn 36s
      Overall bit rate : 1 536 Kbps
      Writing application : VirtualDubMod 1.5.10.2 (build 2540/release)
      Writing library : VirtualDub build 29808/release
   Video #0
      ID : 0
      Format : MPEG-4 Visual
      Format settings, BVOP : Yes
      Format settings, QPel : No
      Format settings, GMC : No warppoints
      Format settings, Matrix : Default (H.263)
      Muxing mode : Packed bitstream
      Codec ID : DX50
      Codec ID/Hint : DivX 5
      Duration : 52mn 36s
      Bit rate : 1 399 Kbps
      Width : 704 pixels
      Height : 384 pixels
      Display aspect ratio : 16:9
      Frame rate : 25.000 fps
      Color space : YUV
      Chroma subsampling : 4:2:0
      Bit depth : 8 bits
      Scan type : Progressive
      Bits/(Pixel*Frame) : 0.207
      Stream size : 526 MiB (91%)
      Writing library : DivX 6.8.5 (UTC 2009-08-20)
   Audio #1
      ID : 1
      Format : MPEG Audio
      Format version : Version 1
      Format profile : Layer 3
      Mode : Joint stereo
      Codec ID : 55
      Codec ID/Hint : MP3
      Duration : 52mn 36s
      Bit rate mode : Constant
      Bit rate : 128 Kbps
      Channel(s) : 2 channels
      Sampling rate : 48.0 KHz
      Stream size : 48.2 MiB (8%)
      Alignment : Aligned on interleaves
      Interleave, duration : 40 ms (1.00 video frame)
      Interleave, preload duration : 504 ms
      Writing library : LAME3.90.3
Семпл: http://multi-up.com/739429

Релиз группы:

picpicpicpicpicpicpicpic
Для увеличения картинки щелкните мышкой по превью

Этот торрент недоступен для скачивания без регистрации, однако доступен по публичной magnet-ссылке (источники с публичных трекеров). Перед использованием ссылки прочтите, пожалуйста Пользовательское соглашение, а также как можно дольше оставайтесь на раздаче! Для того, чтобы скачать сам торрент-файл (который видит больше источников), а также для того, чтобы поблагодарить релизера, вам необходимо зарегистрироваться. Если регистрироваться лень - вы можете также попробовать скачать релиз по нашим партнерским ссылкам ниже.

[underverse.su].t19003.torrent
Трекер: Зарегистрирован   [ 29.07.2012 17:06 ]  

Статус: проверено (by Паукан at 29.07.2012 17:55)
Поблагодарили: 1 человек
Тип торрента: публичный - доступные источники с открытых трекеров: 
Размер: 4,66 GB (занимает 1,06 DVDR, для записи нужно 2 болванки DVDR/RW)
 
 
Похожие темы
Форум Тема Автор Торрент Отв. Посл. сооб.
xUSSR сериалы Товарищи полицейские (Криминальная полиция) [сезон: 1, серии: 1-24 из 24] (Юрий Музыка, Юрий Харнас, Константин Фролов) [2011 г., детектив, криминал, SATRip] nemos
0 | 0

0 | 919

5

29.07.2012 16:23


Яндекс.Метрика powered by Sphinx


В Н И М А Н И Е
Сайт не распространяет и не хранит электронные версии произведений, а лишь бесплатно и без коммерческой выгоды (не требуя взамен платы,
SMS и т.д.) предоставляет доступ к создаваемому пользователями каталогу ссылок на торрент-файлы, которые содержат только списки хеш-сумм.
Убедительная просьба с жалобами обращаться напрямую к пользователю, разместившему торрент файл.

Вверх