Loading...
Error

Товарищи полицейские (Криминальная полиция) [сезон: 1, серии: 1-24 из 24] (Юрий Музыка, Юрий Харнас, Константин Фролов) [2011 г., детектив, криминал, SATRip]

Статистика раздачи
Размер:  14,06 GB   |    Зарегистрирован:  4 года 4 месяца   |    Скачан:  5 раз

Полного источника не было: 2 года

Сидов:  0  |  0 KB/s  ]   Личеров:  0  |  0 KB/s  ]

* - сиды/пиры с внешних источников

   
 
Автор Сообщение

nemos Пол:Муж

29-Июл-2012 16:23

Товарищи полицейские (Криминальная полиция)


Год выпуска: 2011
Жанр: криминал, детектив
Страна: Россия
Режиссер: Юрий Музыка, Юрий Харнас, Константин Фролов
В ролях: Сергей Сосновский, Светлана Свибильская, Алексей Демидов, Егор Баринов, Владислав Демин, Татьяна Орлова, Алексей Осипов, Анжелина Карелина, Сергей Удовик, Владислав Резник
Сюжет фильма:
Главные герои сериала — современные сотрудники МУРа. Они мало чем отличаются от всех нас. У них тоже есть семьи, прошлое, планы на будущее, свои слабости, привычки, достоинства и недостатки. Но эти люди каждый день выходят на борьбу с преступностью.


Качество видео: SatRip

Продолжительность: 00:52:00 х 24 серии

Формат: AVI
Видео: XviD, 720x400, 1421 kbps
Аудио: русский, оригинал, MP3 2.0, 192kbps

Код:

D:\СКАЧКИ\С underverse\Tovarishi.policeyskie.(01-24.serii.iz.24).2011.XviD.SATRip.KinozalSAT\Tovarishi.policeyskie.(08.seriya.iz.24).360.minut.2011.XviD.SATRip.KinozalSAT.avi
   General
      Complete name : D:\СКАЧКИ\С underverse\Tovarishi.policeyskie.(01-24.serii.iz.24).2011.XviD.SATRip.KinozalSAT\Tovarishi.policeyskie.(08.seriya.iz.24).360.minut.2011.XviD.SATRip.KinozalSAT.avi
      Format : AVI
      Format/Info : Audio Video Interleave
      File size : 600 MiB
      Duration : 51mn 45s
      Overall bit rate : 1 621 Kbps
      Writing application : VirtualDubMod 1.5.4.1 (build 2178/release)
      Writing library : VirtualDubMod build 2178/release
   Video #0
      ID : 0
      Format : MPEG-4 Visual
      Format profile : Advanced Simple@L5
      Format settings, BVOP : Yes
      Format settings, QPel : No
      Format settings, GMC : No warppoints
      Format settings, Matrix : Custom
      Codec ID : XVID
      Codec ID/Hint : XviD
      Duration : 51mn 45s
      Bit rate : 1 421 Kbps
      Width : 720 pixels
      Height : 400 pixels
      Display aspect ratio : 16:9
      Frame rate : 25.000 fps
      Color space : YUV
      Chroma subsampling : 4:2:0
      Bit depth : 8 bits
      Scan type : Progressive
      Bits/(Pixel*Frame) : 0.197
      Stream size : 526 MiB (88%)
      Writing library : XviD 1.2.1 (UTC 2008-12-04)
   Audio #1
      ID : 1
      Format : MPEG Audio
      Format version : Version 1
      Format profile : Layer 3
      Mode : Joint stereo
      Mode extension : MS Stereo
      Codec ID : 55
      Codec ID/Hint : MP3
      Duration : 51mn 45s
      Bit rate mode : Constant
      Bit rate : 192 Kbps
      Channel(s) : 2 channels
      Sampling rate : 48.0 KHz
      Stream size : 71.1 MiB (12%)
      Alignment : Aligned on interleaves
      Interleave, duration : 80 ms (2.00 video frames)
      Interleave, preload duration : 504 ms
      Writing library : LAME3.97
      Encoding settings : -m j -V 4 -q 2 -lowpass 18.6 -b 192
Семпл: http://multi-up.com/739402

Релиз группы:
picpicpicpicpicpicpicpic
Для увеличения картинки щелкните мышкой по превью

Этот торрент недоступен для скачивания без регистрации, однако доступен по публичной magnet-ссылке (источники с публичных трекеров). Перед использованием ссылки прочтите, пожалуйста Пользовательское соглашение, а также как можно дольше оставайтесь на раздаче! Для того, чтобы скачать сам торрент-файл (который видит больше источников), а также для того, чтобы поблагодарить релизера, вам необходимо зарегистрироваться. Если регистрироваться лень - вы можете также попробовать скачать релиз по нашим партнерским ссылкам ниже.

[underverse.su].t19001.torrent
Трекер: Зарегистрирован   [ 29.07.2012 16:23 ]  

Статус: проверено (by Паукан at 29.07.2012 17:53)
Поблагодарили: пока никто не поблагодарил...
Тип торрента: публичный - доступные источники с открытых трекеров: 
Размер: 14,06 GB (занимает 3,21 DVDR, для записи нужно 4 болванки DVDR/RW)
 
 
Похожие темы
Форум Тема Автор Торрент Отв. Посл. сооб.
xUSSR сериалы Товарищи полицейские (Криминальная полиция) / Сезон: 2, Серии: 25-32 из 32 (Юрий Музыка, Юрий Харнас, Константин Фролов) [2012 г., детектив, криминал, SATRip] nemos
0 | 0

0 | 2493

6

29.07.2012 17:06


Яндекс.Метрика powered by Sphinx


В Н И М А Н И Е
Сайт не распространяет и не хранит электронные версии произведений, а лишь бесплатно и без коммерческой выгоды (не требуя взамен платы,
SMS и т.д.) предоставляет доступ к создаваемому пользователями каталогу ссылок на торрент-файлы, которые содержат только списки хеш-сумм.
Убедительная просьба с жалобами обращаться напрямую к пользователю, разместившему торрент файл.

Вверх