Loading...
Error

Наркотрафик / Сезон: 1 Серии: 1-24 из 24 (Наталия Бучнева) [2012, боевик, криминал, детектив, SATRip]

Статистика раздачи
Размер:  12,52 GB   |    Зарегистрирован:  4 года 4 месяца   |    Скачан:  3 раза

Полного источника не было: 9 месяцев

Сидов:  0  |  0 KB/s  ]   Личеров:  0  |  0 KB/s  ]

* - сиды/пиры с внешних источников

   
 
Автор Сообщение

nemos Пол:Муж

29-Июл-2012 07:37


Год выпуска: 2012
Жанр: Драма, Криминал, Детектив
Страна: Россия
Режиссер: Петр Забелин, Наталия Бучнева, Николай Борц, Павел Симонов, Андрей Балашов
В ролях: Роман Грибков, Сергей Барковский Денис Синявский, Константин Воробьев, Анастасия Задорожная, Тара Амирханова, Александр Орловский, Олег Алмазов, Андрей Полищук, Максим Студеновский, Виктор Выбриенко, Иван Мартынов(II), Оксана Скакун, Евгений Добряков, Даниил Кокин, Сергей Кошонин, Леонид Нечаев (II), Илья Сидоров, Владимир Бирюков, Мария Иванова(IV), Игорь Ключников, Марина Кузнецова(IV), Руслан Нанава, Анна Пескова, Владислав Резник, Денис Рейшахрит, Вадим Романов, Юлия Сафонова, Геннадий Свирь, Михаил Сидаш, Павел Харизанов, Витас Эйзенах, Леонид Ворон, Анатолий Хропов, Александр Нестеров(III), Тимур Таболов, Иван Безбородов, Павел Ивановский, Леонид Коронов, Александр Мосолов, Александр Петров(X), Анастасия Рысева, Антон Чернов, Кирилл Щербина, Виктор Юрков
Сюжет фильма:
Фильм снят по мотивам романа Сергея Соболева «Танцы с волками». В России все больше жертв нового наркотика. "Дикий мед" - сильнейший допинг, способный даже "ботаника" наделить нечеловеческой силой и агрессивностью хищника. На вид - обычный пластырь. Привыкание - с первой дозы. Как оказалось, это секретная разработка еще времен СССР, которая теперь она попала в руки преступников. О них ничего не известно - преступная организация возникла как будто из ниоткуда, но размах впечатляет: ее боятся местные наркобароны, она стремиться завоевать международный рынок. Это могущественный, расчетливый, жестокий противник. Чтобы обезвредить его, создается специальная группа.
Качество видео: SatRip

Продолжительность: 00:44:50 х 24 серии

Формат: AVI
Видео: XviD, 720х400, 1495 kbps
Аудио: русский, оригинал, MP3 2.0, 128 kbps

Код:

D:\СКАЧКИ\c NO NA ME\ФИЛЬМЫ\Narkotrafik.2012.SATRip\Narkotrafik.04.seriya.2012.SATRip.avi
   General
      Complete name : D:\СКАЧКИ\c NO NA ME\ФИЛЬМЫ\Narkotrafik.2012.SATRip\Narkotrafik.04.seriya.2012.SATRip.avi
      Format : AVI
      Format/Info : Audio Video Interleave
      File size : 527 MiB
      Duration : 45mn 5s
      Overall bit rate : 1 633 Kbps
      Writing application : VirtualDubMod 1.5.10.2 (build 2540/release)
      Writing library : VirtualDub build 32507/release
   Video #0
      ID : 0
      Format : MPEG-4 Visual
      Format profile : Advanced Simple@L5
      Format settings, BVOP : Yes
      Format settings, QPel : No
      Format settings, GMC : No warppoints
      Format settings, Matrix : Default (MPEG)
      Muxing mode : Packed bitstream
      Codec ID : XVID
      Codec ID/Hint : XviD
      Duration : 45mn 5s
      Bit rate : 1 495 Kbps
      Width : 720 pixels
      Height : 400 pixels
      Display aspect ratio : 16:9
      Frame rate : 25.000 fps
      Color space : YUV
      Chroma subsampling : 4:2:0
      Bit depth : 8 bits
      Scan type : Progressive
      Bits/(Pixel*Frame) : 0.208
      Stream size : 482 MiB (92%)
      Writing library : XviD 1.2.1 (UTC 2008-12-04)
   Audio #1
      ID : 1
      Format : MPEG Audio
      Format version : Version 1
      Format profile : Layer 3
      Mode : Joint stereo
      Mode extension : MS Stereo
      Codec ID : 55
      Codec ID/Hint : MP3
      Duration : 45mn 5s
      Bit rate mode : Constant
      Bit rate : 128 Kbps
      Channel(s) : 2 channels
      Sampling rate : 48.0 KHz
      Stream size : 41.3 MiB (8%)
      Alignment : Aligned on interleaves
      Interleave, duration : 40 ms (1.00 video frame)
      Interleave, preload duration : 504 ms
      Writing library : LAME3.90.3
Семпл: http://multi-up.com/739184

picpicpicpicpicpicpicpicpicpic
Для увеличения картинки щелкните мышкой по превью

Этот торрент недоступен для скачивания без регистрации, однако доступен по публичной magnet-ссылке (источники с публичных трекеров). Перед использованием ссылки прочтите, пожалуйста Пользовательское соглашение, а также как можно дольше оставайтесь на раздаче! Для того, чтобы скачать сам торрент-файл (который видит больше источников), а также для того, чтобы поблагодарить релизера, вам необходимо зарегистрироваться. Если регистрироваться лень - вы можете также попробовать скачать релиз по нашим партнерским ссылкам ниже.

[underverse.su].t19107.torrent
Трекер: Зарегистрирован   [ 07.08.2012 15:12 ]  

Статус: проверено (by Паукан at 08.08.2012 11:43)
Поблагодарили: 2 человека
Тип торрента: публичный - доступные источники с открытых трекеров: 
Размер: 12,52 GB (занимает 2,86 DVDR, для записи нужно 3 болванки DVDR/RW)
 
 


Последний раз редактировалось: nemos (06.11.2014 12:50), всего редактировалось 10 раз(а)

sedoygrizli Пол:Муж

03-Авг-2012 16:37

встаньте на раздачу осталось докачать 12 процентов

ssnssn Пол:Муж

11-Авг-2012 08:09

где раздача

Яндекс.Метрика powered by Sphinx


В Н И М А Н И Е
Сайт не распространяет и не хранит электронные версии произведений, а лишь бесплатно и без коммерческой выгоды (не требуя взамен платы,
SMS и т.д.) предоставляет доступ к создаваемому пользователями каталогу ссылок на торрент-файлы, которые содержат только списки хеш-сумм.
Убедительная просьба с жалобами обращаться напрямую к пользователю, разместившему торрент файл.

Вверх